<?xml version="1.0" standalone="no"?>
<!DOCTYPE svg PUBLIC "-//W3C//DTD SVG 1.1//EN" "http://www.w3.org/Graphics/SVG/1.1/DTD/svg11.dtd">
<svg xmlns="http://www.w3.org/2000/svg">
<metadata>Copyright (C) 2025 by original authors @ fontello.com</metadata>
<defs>
<font id="inmt-icons" horiz-adv-x="1000" >
<font-face font-family="inmt-icons" font-weight="400" font-stretch="normal" units-per-em="1000" ascent="850" descent="-150" />
<missing-glyph horiz-adv-x="1000" />
<glyph glyph-name="fire" unicode="&#xe800;" d="M424-150c-57 0-112 10-164 31-50 20-95 48-135 84-39 37-70 79-91 127-23 49-34 102-34 156 0 61 15 123 44 178 5 9 11 18 16 27 27 41 62 74 97 106 49 44 95 86 107 146 5 24 4 50 2 79l-1 19c-1 16 7 31 20 40 13 9 30 9 45 1l45-25c69-38 123-92 162-161 29-50 48-98 57-143 3 5 4 10 6 15l3 8c3 10 10 34 36 40 21 6 37-8 42-12l28-25c43-37 77-81 101-131 24-51 36-106 36-162 0-54-11-107-33-157-22-47-53-90-92-126-39-36-84-65-135-84-51-21-106-31-162-31z m-86 908c1-22 0-46-5-69-26-119-137-173-204-264-56-78-73-179-43-272 49-153 210-238 360-230 84 5 166 38 229 96 96 90 130 236 72 359-19 41-47 77-82 107 0 0-4 4-4 4 14-13-52-85-63-93-27-17-69-1-66 36 3 56-15 119-55 189-32 58-77 103-134 134l-5 3z m-41 23c0-1 0-1 0 0l0 0z" horiz-adv-x="847" />

<glyph glyph-name="news-view" unicode="&#xe801;" d="M883 858l-777 0c-59 0-106-45-106-100l0-691c0-55 47-100 106-100l777 0c58 0 105 45 105 100l0 691c0 55-47 100-105 100z m0-791l-777 0c-4 0-6 0-6 0l-2 689c0 0 4 2 8 2l777 0c4 0 6-2 6 0l0-689c0 0-2-2-6-2z m-686 592l297 0 0-295-297 0z m346-395l-346 0 0-98 594 0 0 98z m49 197l199 0 0-97-199 0z m0 198l199 0 0-98-199 0z" horiz-adv-x="1000" />

<glyph glyph-name="news" unicode="&#xe802;" d="M729 53c-14 0-26 2-36 8-31 16-54 39-78 107-23 73-66 106-109 139-35 27-72 57-106 115-23 43-37 92-37 135 0 127 100 229 229 229 127 0 228-102 228-229l92 0c0 180-140 320-320 320-180 0-320-140-320-320 0-59 17-121 48-180 41-74 90-113 131-142 37-29 63-49 78-94 28-84 63-131 125-164 24-10 49-16 75-16 101 0 183 82 183 184l-92 0c0-51-41-92-91-92z m-428 795l-65 65c-91-92-148-217-148-356 0-139 57-266 148-355l65 64c-74 74-121 176-121 291 0 113 47 217 121 291z m176-291c0-64 52-115 115-115 62 0 113 51 113 115 0 63-51 113-113 113-63 0-115-50-115-113z" horiz-adv-x="1000" />

<glyph glyph-name="media" unicode="&#xe803;" d="M100 713l-100 0 0-701c0-55 45-100 100-100l701 0 0 100-701 0z m800 200l-599 0c-57 0-102-45-102-100l0-600c0-56 45-101 102-101l599 0c55 0 100 45 100 101l0 600c0 55-45 100-100 100z m0-700l-599 0 0 600 599 0z m-400 524l0-449 301 224z" horiz-adv-x="1000" />

<glyph glyph-name="match-center" unicode="&#xe804;" d="M830 748l-660 0c-45 0-82-37-82-82l0-494c0-47 37-84 82-84l660 0c45 0 82 37 82 84l0 494c0 45-37 82-82 82z m0-576l-660 0 0 494 660 0z m-660 741l660 0 0-82-660 0z m0-907l660 0 0-82-660 0z m330 412c57 0 104 47 104 104 0 57-47 101-104 101-57 0-103-44-103-101 0-57 46-104 103-104z m0 145c23 0 41-20 41-41 0-24-18-41-41-41-23 0-41 17-41 41 0 21 18 41 41 41z m205-309c0 86-135 123-205 123-70 0-205-37-205-123l0-41 410 0z m-336 20c26 21 84 41 131 41 49 0 107-20 131-41z" horiz-adv-x="1000" />

<glyph glyph-name="instagram" unicode="&#xe805;" d="M623 438c0 88-70 158-158 158-86 0-156-70-156-158 0-86 70-156 156-156 88 0 158 70 158 156z m80 0c0-133-103-238-238-238-133 0-238 105-238 238 0 135 105 240 238 240 135 0 238-105 238-240z m65 250c0-33-24-57-59-57-33 0-57 24-57 57 0 35 24 59 57 59 35 0 59-30 59-59z m-303 135c-68 0-215 6-274-18-41-17-74-53-85-94-24-56-18-203-18-273 0-68-6-215 18-273 11-40 44-75 85-86 59-24 211-18 274-18 64 0 217-6 273 18 41 17 71 46 88 86 24 64 18 210 18 273 0 64 6 217-18 273-11 41-47 77-88 88-56 30-203 24-273 24z m467-385l0-191c0-71-24-139-76-198-53-53-124-76-198-76l-385 0c-70 0-138 23-197 76-47 53-76 121-76 198l0 384c0 75 29 145 76 198 59 46 127 76 197 76l385 0c69 0 139-24 198-76 46-53 76-123 76-198z" horiz-adv-x="1000" />

<glyph glyph-name="forum" unicode="&#xe806;" d="M650 813l0-350-492 0-58-58 0 408z m49 100l-648 0c-28 0-51-24-51-51l0-699 199 199 500 0c28 0 51 23 51 51l0 449c0 27-23 51-51 51z m250-200l-99 0 0-451-651 0 0-99c0-28 24-51 51-51l551 0 199-200 0 751c0 27-23 50-51 50z" horiz-adv-x="1000" />

<glyph glyph-name="overview" unicode="&#xe807;" d="M900 840l-800 0c-55 0-100-45-100-99l0-600c0-55 45-100 100-100l800 0c55 0 100 45 100 100l0 600c0 54-45 99-100 99z m-800-250l525 0 0-174-525 0z m0-273l525 0 0-176-525 0z m800-176l-175 0 0 449 175 0z" horiz-adv-x="1000" />

<glyph glyph-name="players" unicode="&#xe808;" d="M350 332c-118 0-350-58-350-175l0-88 699 0 0 88c0 117-232 175-349 175z m-233-162c41 28 143 63 233 63 90 0 191-35 234-63z m233 250c97 0 175 78 175 174 0 98-78 176-175 176-96 0-174-78-174-176 0-96 78-174 174-174z m0 250c41 0 76-35 76-76 0-41-35-74-76-74-41 0-75 33-75 74 0 41 34 76 75 76z m351-341c59-41 100-98 100-172l0-88 199 0 0 88c0 101-176 158-299 172z m-51 91c96 0 174 78 174 174 0 98-78 176-174 176-27 0-52-6-76-18 33-45 51-99 51-158 0-58-18-113-51-156 24-12 49-18 76-18z" horiz-adv-x="1000" />

<glyph glyph-name="ranking" unicode="&#xe809;" d="M492 797l24-113 299 0 0-344-192 0-23 116-414 0 0 341z m94 116l-514 0 0-971 114 0 0 398 320 0 23-113 399 0 0 570-319 0z" horiz-adv-x="1000" />

<glyph glyph-name="results" unicode="&#xe80a;" d="M334 135l-111 0 0 389 111 0z m221 0l-110 0 0 555 110 0z m222 0l-111 0 0 223 111 0z m112-111l-778 0 0 777 778 0z m0 889l-778 0c-60 0-111-51-111-112l0-777c0-61 51-112 111-112l778 0c60 0 111 51 111 112l0 777c0 61-51 112-111 112z" horiz-adv-x="1000" />

<glyph glyph-name="schedule" unicode="&#xe80b;" d="M464 29h-250v250h250z m536 464v-357c0-135 0-202-42-244s-109-42-244-42h-428c-135 0-202 0-244 42s-42 109-42 244v357c0 66 0 100 11 126a143 143 0 0 0 77 77c26 11 60 11 126 11v143h143v-143h286v143h143v-143c66 0 100 0 126-11a143 143 0 0 0 77-77c11-26 11-60 11-126z m-71-107h-858v-250c0-70 1-114 5-148 4-31 11-40 16-46s16-12 46-16c33-4 78-5 148-5h428c70 0 115 1 148 5 31 4 40 11 46 16s12 15 16 46c4 34 5 78 5 148z m0 107c0 34 0 56-2 73-1 16-3 23-4 26a71 71 0 0 1-38 38c-3 2-10 4-26 5-17 1-39 1-73 1h-572c-34 0-56 0-73-1-16-2-22-3-25-5a71 71 0 0 1-39-38c-1-3-3-9-4-26-1-17-1-39-1-73v-36h857z" horiz-adv-x="1000" />

<glyph glyph-name="scouting" unicode="&#xe80c;" d="M500 913c-275 0-500-225-500-500 0-276 225-501 500-501 275 0 500 225 500 501 0 275-225 500-500 500z m0-901c-221 0-400 180-400 401 0 220 179 400 400 400 221 0 400-180 400-400 0-221-179-401-400-401z m-275 125l375 176 175 375-375-176z m275 330c31 0 55-23 55-54 0-32-24-55-55-55-31 0-55 23-55 55 0 31 24 54 55 54z" horiz-adv-x="1000" />

<glyph glyph-name="search" unicode="&#xe80d;" d="M445 769c-201 0-364-163-364-364 0-201 163-364 364-364 101 0 192 40 258 106 66 66 107 157 107 258 0 201-164 364-365 364z m-445-364c0 246 199 445 445 445 246 0 445-199 445-445 0-109-38-208-103-285l213-213-57-57-213 213c-77-65-176-103-285-103-246 0-445 199-445 445z" horiz-adv-x="1000" />

<glyph glyph-name="shop" unicode="&#xe80e;" d="M971 434c17-18 29-45 29-72 0-28-12-51-29-71l-350-349c-19-18-43-30-70-30-28 0-53 12-70 30l-452 449c-17 20-29 45-29 72l0 350c0 55 45 100 100 100l349 0c28 0 53-12 71-30z m-420-422l349 352-451 449-349 0 0-350z m-326 600c-41 0-75 35-75 76 0 41 34 74 75 74 41 0 76-33 76-74 0-41-35-76-76-76z m121-227c0 57 45 102 101 102 28 0 55-10 73-30l31-29 29 29c18 20 43 30 72 30 57 0 104-45 104-102 0-27-12-54-31-72l-174-176-176 176c-18 19-29 43-29 72z" horiz-adv-x="1000" />

<glyph glyph-name="stats" unicode="&#xe80f;" d="M445 690l332 0 0-111-332 0z m0-223l332 0 0-109-332 0z m0-220l332 0 0-112-332 0z m-222 443l111 0 0-111-111 0z m0-223l111 0 0-109-111 0z m0-220l111 0 0-112-111 0z m726 666l-898 0c-29 0-51-22-51-51l0-899c0-23 22-51 51-51l898 0c24 0 51 28 51 51l0 899c0 29-27 51-51 51z m-60-889l-778 0 0 777 778 0z" horiz-adv-x="1000" />

<glyph glyph-name="tactics" unicode="&#xe810;" d="M500 913c275 0 500-225 500-500 0-276-225-501-500-501-275 0-500 225-500 501 0 275 225 500 500 500z m0-901c221 0 400 180 400 401 0 220-179 400-400 400-221 0-400-180-400-400 0-221 179-401 400-401z m-199 201c-57 0-102 45-102 100 0 55 45 100 102 100 55 0 99-45 99-100 0-55-44-100-99-100z m199 299c-55 0-100 45-100 100 0 56 45 101 100 101 55 0 100-45 100-101 0-55-45-100-100-100z m199-299c-54 0-99 45-99 100 0 55 45 100 99 100 57 0 102-45 102-100 0-55-45-100-102-100z" horiz-adv-x="1000" />

<glyph glyph-name="teams" unicode="&#xe811;" d="M184 360c-30 0-53-24-53-53 0-29 23-53 53-53 29 0 52 24 52 53 0 29-23 53-52 53z m0-211c-30 0-53-24-53-53 0-29 23-53 53-53 29 0 52 24 52 53 0 29-23 53-52 53z m0 422c-30 0-53-24-53-53 0-29 23-53 53-53 29 0 52 24 52 53 0 29-23 53-52 53z m-159-28c-13 0-25-11-25-25 0-16 12-27 25-27 16 0 28 11 28 27 0 14-12 25-28 25z m159 239c-30 0-53-24-53-53 0-29 23-53 53-53 29 0 52 24 52 53 0 29-23 53-52 53z m791-291c13 0 25 11 25 27 0 14-12 25-25 25-16 0-28-11-28-25 0-16 12-27 28-27z m-369 185c29 0 52 24 52 53 0 29-23 53-52 53-30 0-53-24-53-53 0-29 23-53 53-53z m0 184c13 0 25 12 25 27 0 14-12 26-25 26-16 0-28-12-28-26 0-15 12-27 28-27z m-581-526c-13 0-25-11-25-27 0-14 12-25 25-25 16 0 28 11 28 25 0 16-12 27-28 27z m370-369c-14 0-26-12-26-27 0-14 12-26 26-26 15 0 27 12 27 26 0 15-12 27-27 27z m0 895c15 0 27 12 27 27 0 14-12 26-27 26-14 0-26-12-26-26 0-15 12-27 26-27z m0-184c29 0 52 24 52 53 0 29-23 53-52 53-30 0-53-24-53-53 0-29 23-53 53-53z m0-289c-43 0-79-37-79-80 0-43 36-78 79-78 43 0 80 35 80 78 0 43-37 80-80 80z m421-27c-29 0-52-24-52-53 0-29 23-53 52-53 30 0 53 24 53 53 0 29-23 53-53 53z m0-211c-29 0-52-24-52-53 0-29 23-53 52-53 30 0 53 24 53 53 0 29-23 53-53 53z m0 422c-29 0-52-24-52-53 0-29 23-53 52-53 30 0 53 24 53 53 0 29-23 53-53 53z m0 211c-29 0-52-24-52-53 0-29 23-53 52-53 30 0 53 24 53 53 0 29-23 53-53 53z m159-448c-16 0-28-11-28-27 0-14 12-25 28-25 13 0 25 11 25 25 0 16-12 27-25 27z m-369-185c-30 0-53-24-53-53 0-29 23-53 53-53 29 0 52 24 52 53 0 29-23 53-52 53z m0-184c-16 0-28-12-28-27 0-14 12-26 28-26 13 0 25 12 25 26 0 15-12 27-25 27z m-211 631c-43 0-79-35-79-78 0-43 36-80 79-80 43 0 80 37 80 80 0 43-37 78-80 78z m0-447c-30 0-53-24-53-53 0-29 23-53 53-53 29 0 52 24 52 53 0 29-23 53-52 53z m211 238c-43 0-81-37-81-80 0-43 38-78 81-78 42 0 78 35 78 78 0 43-36 80-78 80z m0 209c-43 0-81-35-81-78 0-43 38-80 81-80 42 0 78 37 78 80 0 43-36 78-78 78z" horiz-adv-x="1000" />

<glyph glyph-name="telegram" unicode="&#xe812;" d="M953 748l-144-679c-12-49-39-61-80-37l-219 162-108-102c-11-11-21-23-43-23l16 224 406 368c20 17-4 25-27 9l-502-316-217 66c-47 16-49 47 10 71l848 326c39 15 72-8 60-69z" horiz-adv-x="1000" />

<glyph glyph-name="bravery" unicode="&#xe813;" d="M125 913l750 0 0-94-750 0z m236-471l0 324-236 0 0-258 111-181c30 48 73 89 125 115z m282 0c52-27 93-69 123-117l111 181 0 260-234 0z m-141-10c-143 0-260-117-260-260 0-144 117-260 260-260 143 0 260 116 260 260 0 143-117 258-260 260z m0-473c-117 0-213 96-213 213 0 118 96 211 213 211 117 0 213-93 213-211-2-117-96-213-213-213z m139 213c0-78-63-142-141-142-78 0-141 64-141 142 0 78 63 141 141 141 78 0 141-63 141-141z" horiz-adv-x="1000" />

<glyph glyph-name="boosts" unicode="&#xe814;" d="M691 415c114-133 174-250 141-284-31-31-156 30-293 147-17 15-35 31-53 49l321 291c4-69 2-135-4-202 0 0 37 79 70 165 10-59 18-120 22-180 0 0 170 392 78 484-90 90-485-80-485-80 61-2 121-10 182-19-88-34-164-73-164-73 64 8 131 8 197 4l-291-318c-17 17-33 35-47 51-119 138-183 259-148 295 35 33 152-28 283-143l47 53c-188 154-383 217-461 136-61-60-33-197 57-345-41 19-86 15-121-12-57-55 0-199 121-330l-110-123c-8-8-8-24 0-33 6-4 12-6 18-6 6 0 14 2 17 6l122 107c130-121 277-176 332-121 25 35 31 82 11 121 149-90 283-117 348-53 78 79 17 272-137 461z m-587-10c11 11 41 4 78-18 17-25 37-49 56-74 16-18 32-35 47-53l-62-70c-92 98-145 189-119 215z m386-391c-23-23-117 29-215 119l73 65c17-16 35-32 52-47 18-16 49-41 75-59 21-35 27-64 15-78z" horiz-adv-x="1000" />

<glyph glyph-name="attacking" unicode="&#xe815;" d="M895 188c-18 14-45 10-59-10-4-4-8-8-10-12l0 397c4 184-140 336-324 342-184-6-328-158-324-342l0-400c-4 5-8 9-12 15-8 10-18 16-29 18-12 2-24 0-31-8-10-6-16-18-18-29-2-10 0-22 8-32 94-131 244-207 404-207 160 0 311 76 404 207 8 10 10 22 8 32-2 11-8 23-17 29z m-338 309c0 9 148 130 187 87 41-44-10-140-49-144-39-2-138 23-138 51z m-51-120c39 0 107-31 107-93 0-34-68-53-107-53-39 0-108 19-108 53 0 58 67 91 108 93z m-250 207c39 45 187-78 187-86l0-5c0-28-97-53-136-51-37 4-90 101-51 142z" horiz-adv-x="1000" />

<glyph glyph-name="assists" unicode="&#xe816;" d="M752 577c0 52-41 95-94 95l6 0-14 51-66 0-14-51-136 0 0 194c0 25-22 47-47 47-28 0-49-22-49-47l0-196 4 0c-51 0-94-41-94-93-27 0-51-22-51-51l0-100c0-13 4-27 14-37 10-10 23-14 37-14 0 0 0 0 0-3l0-366c0-53 41-94 94-94l316 0c53 0 94 41 94 94l0 369c14 0 27 4 37 14 10 10 14 24 14 37l0 100c0 29-22 51-51 51z m-98-301l-306 0c-20 0-35 15-35 35 0 20 15 35 35 35l306 0c20 0 36-15 36-35 0-20-16-35-36-35z m0 117l-306 0c-20 0-35 16-35 35 0 20 15 37 35 37l306 0c20 0 36-17 36-37 0-19-16-35-36-35z m0 119l-306 0c-20 0-35 16-35 35 0 20 15 35 35 35l306 0c20 0 36-15 36-35 0-19-16-35-36-35z" horiz-adv-x="1000" />

<glyph glyph-name="anticipation" unicode="&#xe817;" d="M209 59l586 0-84 502-418 0z m647 854l-143 0 0-94-141 0 0 94-140 0 0-94-143 0 0 94-141 0 0-290 708 0z m-731-907l750 0 0-94-750 0z" horiz-adv-x="1000" />

<glyph glyph-name="accuracy" unicode="&#xe818;" d="M904 457c-19 190-170 340-359 362l0 94-90 0 0-94c-189-22-340-172-361-362l-94 0 0-89 94 0c21-190 172-340 361-360l0-94 90 0 0 94c189 22 338 170 359 360l94 0 0 89z m-449 268l0-105c-82-18-144-80-162-163l-105 0c21 139 128 247 267 268z m-267-357l105 0c18-80 82-145 162-162l0-106c-139 20-246 129-267 268z m359-268l0 106c80 19 143 82 160 162l106 0c-20-139-129-248-268-268z m160 357c-17 83-80 145-162 163l0 105c139-21 248-131 268-269z" horiz-adv-x="1000" />

<glyph glyph-name="aggression" unicode="&#xe819;" d="M315 614c23 33 44 70 62 107 16-31 35-58 59-82 23 35 45 72 64 111 20-39 41-76 66-111 26 24 45 51 61 82 18-37 39-72 63-107 44 41 72 97 76 158 0 31-18 60-47 72-29 12-63 6-84-15-12 25-35 43-65 44-27 2-54-9-70-31-16 22-43 33-70 31-30-1-53-19-65-44-13 11-31 21-50 21-22 0-42-8-55-23-16-14-24-34-24-55 4-61 34-117 79-158z m-122 72c16 31 12 66-7 94-20 27-53 43-86 37-63-12-104-69-100-131 2-96 37-189 98-266 15 94 49 184 95 266z m709-266c61 77 96 170 98 266 4 62-37 117-98 131-33 6-68-8-87-35-22-28-24-65-8-96 47-82 80-172 95-266z m-732-17c-51-78-80-170-82-264 0-72 37-123 82-131 31-2 62 14 80 41 16 28 18 61 2 90-41 84-68 172-82 264z m578-264c-16-29-14-62 4-90 16-27 47-43 78-41 45 8 82 59 82 131-2 94-29 186-82 264-14-92-41-180-82-264z m-100 37c-17-29-35-62-48-94-12 26-28 51-47 71-20-30-37-61-51-94-16 33-33 64-53 94-19-20-35-45-47-71-13 32-29 65-46 94-38-37-59-86-63-136-2-36 27-67 63-69 15 0 29 8 41 18 9-22 31-37 56-39 20 2 37 11 47 29 12-20 31-29 51-29 25 0 47 15 56 39 12-12 26-18 41-18 38 2 65 31 63 67-2 52-23 101-63 138z" horiz-adv-x="1000" />

<glyph glyph-name="cup" unicode="&#xe81a;" d="M801 754l0 96-602 0 0-96-199 0 0-134c0-116 94-211 217-227 17-47 47-90 90-121 41-33 90-55 142-63l0-50c0-24-9-47-29-65-18-17-43-27-70-27l-49 0 0-92 398 0 0 92-49 0c-27 0-52 10-70 27-19 18-29 41-29 65l0 50c53 8 101 30 142 63 43 31 73 74 90 121 123 16 217 111 217 227l0 134z m-701-134l0 43 99 0 0-174c-29 9-54 27-72 51-18 23-27 50-27 80z m800 0c0-30-9-57-27-80-17-24-43-42-72-51l0 174 99 0z" horiz-adv-x="1000" />

<glyph glyph-name="star" unicode="&#xe81b;" d="M443 872c20 54 94 54 114 0l93-233c8-21 30-37 53-39l240-19c55-6 77-77 36-116l-184-164c-18-15-25-39-20-64l55-244c14-57-45-100-92-71l-205 131c-21 14-45 14-66 0l-205-131c-47-29-106 14-92 71l55 244c6 25-2 49-20 64l-183 164c-42 39-20 110 35 116l240 19c23 2 45 18 53 39z" horiz-adv-x="1000" />

<glyph glyph-name="twitter" unicode="&#xe81c;" d="M891 618c0-10 0-18 0-26 0-256-196-551-551-551-111 0-213 32-299 86 16-2 31-2 47-2 88 0 172 30 240 82-39 2-78 14-111 40-33 23-57 56-69 95 12-2 24-4 36-4 17 0 35 4 52 8-45 8-84 33-113 67-27 35-43 78-43 123l0 2c26-14 57-24 88-24-27 18-49 41-64 70-14 28-22 59-22 90 0 37 10 71 25 100 49-61 110-109 178-145 71-35 145-54 223-58-4 13-6 29-6 43 0 25 6 51 16 74 9 23 23 45 41 64 17 18 39 32 62 41 24 10 49 16 74 16 57 0 108-23 143-62 43 9 84 25 123 46-16-45-45-82-86-105 39 4 76 14 111 29-25-39-37-52-74-82z" horiz-adv-x="1000" />

<glyph glyph-name="twitch" unicode="&#xe81d;" d="M113 854l-62-164 0-652 224 0 0-122 123 0 122 122 183 0 246 246 0 570z m82-82l672 0 0-447-142-143-225 0-123-123 0 123-184 0z m223-408l82 0 0 246-82 0z m225 0l82 0 0 246-82 0z" horiz-adv-x="1000" />

<glyph glyph-name="transfers" unicode="&#xe81e;" d="M500 913c-275 0-500-225-500-500 0-276 225-501 500-501 275 0 500 225 500 501 0 275-225 500-500 500z m0-901c-221 0-400 180-400 401 0 220 179 400 400 400 221 0 400-180 400-400 0-221-179-401-400-401z m150 676l0-125-201 0 0-100 201 0 0-125 174 174z m-300-201l-174-174 174-176 0 125 201 0 0 100-201 0z" horiz-adv-x="1000" />

<glyph glyph-name="trainings" unicode="&#xe81f;" d="M928 270l72 70-72 73-178-178-428 428 178 177-72 73-71-73-72 73-107-108-71 72-72-72 72-70-107-108 72-72-72-70 72-72 178 177 428-427-178-178 72-73 71 73 72-73 107 108 71-72 72 72-72 70 107 108z" horiz-adv-x="1000" />

<glyph glyph-name="close-shots" unicode="&#xe820;" d="M47 639l385 0c2-25 6-53 15-78l4-12-310 0c-18 6-39-2-51-17-12-18-12-39 0-55 12-18 33-23 51-18l398 0c303 6 463 178 463 225 0 47-162 221-465 229l-301 0c-19 3-41-4-50-20-12-16-12-37 0-55 9-15 31-23 50-17l217 0c-10-30-17-61-19-90l-387 0c-20-6-33-25-33-47 0-19 13-39 33-45z m857 80c-89 31-185 47-281 47-6 27-12 55-23 80 115 2 224-45 304-127z m51-533l-396 0c-2 29-8 61-16 90l318 0c26 0 47 19 47 47 0 25-21 47-47 47l-392 0c-307-8-469-184-469-231 0-49 162-223 469-227l306 0c22 6 36 26 36 47 0 20-14 39-36 45l-234 0c2 4 2 8 4 12 4 14 6 27 8 41 2 12 4 24 4 37l396 0c20-6 41 2 53 18 12 17 12 39 0 54-12 18-33 24-53 20z m-861-14c39 49 156 121 316 131l35 0c22 0 34-29 37-86l-5 0c-30 0-59 4-86 4-102 2-201-15-297-49z" horiz-adv-x="1000" />

<glyph glyph-name="clutches" unicode="&#xe821;" d="M838-86l-520 0 0 149c0 37-11 72-35 100l-176 205c-13 15-15 37-7 56l80 176c6 16 21 27 41 29l281 0c0 0-10-140-187-140l-4-47c91 19 189 4 269-47 0 0 188 61 324 0l-66-256z m-590 997l29 0c28 0 47-22 47-47l0-164-123 0 0 164c0 25 20 47 47 47z m188 0l31 0c25 0 47-22 47-47l0-164-125 0 0 164c0 25 21 47 47 47z m189 0l31 0c26 0 47-22 47-47l0-328c0-28-21-47-47-47l-31 0c-25 0-47 19-47 47l0 328c0 25 22 47 47 47z m190-94l31 0c25 0 47-22 47-47l0-234c0-28-22-47-47-47l-31 0c-26 0-47 19-47 47l0 234c0 25 21 47 47 47z" horiz-adv-x="1000" />

<glyph glyph-name="composure" unicode="&#xe822;" d="M12 120c53-67 135-106 220-102 57-2 114 16 161 47-112 6-219 49-301 125-31-18-59-41-80-70z m894 68c-82-74-187-119-299-123 47-31 102-47 159-47 86-4 168 35 220 102-21 29-48 52-80 68z m-406 191c49 94 129 168 225 213-32 131-114 246-225 321-113-75-193-190-227-321 49-21 92-51 131-88 39-35 71-78 96-125z m0-300c-27-34-60-63-98-85 30-29 63-58 98-82 35 24 68 53 98 82-39 22-71 51-98 85z m-29 58c17 119-26 238-115 317-90 86-213 125-336 107-18-117 25-236 115-316 88-86 213-125 336-108z m58 0c123-17 248 22 336 108 90 80 133 199 116 316-124 18-247-21-336-107-90-79-133-198-116-317z" horiz-adv-x="1000" />

<glyph glyph-name="concentration" unicode="&#xe823;" d="M889 530c9-37 15-78 15-117 0-225-181-407-404-407-225 0-406 182-406 407 0 224 181 406 406 406 39 0 78-6 117-18l74 72c-203 84-437 26-578-144-138-170-150-412-29-594 123-183 352-266 561-201 211 64 355 258 355 479 0 64-14 128-39 189z m-389 72c6 0 14 0 20 0l78 74c-32 12-65 20-98 18-156 0-283-125-283-281 0-159 127-284 283-284 156 0 283 125 283 284 0 33-6 66-19 97l-76-78c0-8 0-14 0-19 0-106-86-190-190-190-103 0-189 84-189 190 0 103 86 187 189 187z m25-100c-9 2-17 4-25 4-41 0-76-25-90-62-13-39 0-82 31-106 32-25 77-27 110-6 33 24 51 65 41 104l183 184 67 0 158 156-137 0 0 137-156-159 0-70z" horiz-adv-x="1000" />

<glyph glyph-name="creativity" unicode="&#xe824;" d="M406 106l-70 0 0-70c0-28 20-47 47-47l23 0 0-30c0-25 22-47 47-47l94 0c27 0 47 22 47 47l0 30 23 0c28 0 49 19 49 47l0 70z m166 330c-33-86-47-178-45-270l-54 0c2 92-12 184-45 270 10-2 19 0 27 6l47 31 45-31c8-6 16-8 25-6z m258 146c0-101-47-197-127-259-23-20-37-47-37-76l0-81-66 0c0 200 48 280 93 327 12 13 12 35 0 48-9 12-29 18-43 10l-82-37-46 33c-12 10-30 10-41 0l-47-33-84 35c-14 8-34 2-43-9-12-14-12-36 0-49 43-47 91-127 93-326l-64 0 0 80c0 29-16 56-39 76-78 60-125 154-127 254-2 181 143 332 324 338 88 2 174-34 238-94 63-63 98-149 98-237z" horiz-adv-x="1000" />

<glyph glyph-name="damage" unicode="&#xe825;" d="M500 434l-152 268-67-379-172 31 73-238-84 2 203-204 199 176 199-176 203 204-84-2 73 238-172-31-67 379z m0 231l55 171-55 75-55-75z m-277-245l-119 82-8 71 66-20z m554 0l120 82 7 71-68-20z" horiz-adv-x="1000" />

<glyph glyph-name="decisions" unicode="&#xe826;" d="M232 26l497 0 0-90-497 0z m614 754c15 11 21 31 15 51-4 11-11 19-23 25-12 4-23 6-35 2l-254-94c-6 8-16 12-24 16l0 64c0 12-5 24-13 31-14 14-33 18-49 12-18-8-29-23-29-43l0-62c-34-16-59-47-67-82l-244-90c-12-6-19-14-25-24-6-11-6-23-2-35 8-19 27-31 49-29l-141-279c0-100 80-180 180-180 97 0 179 80 179 180l-152 302 180 65c11-14 27-28 45-35l0-498 89 0 0 498c40 19 67 58 67 103 0 0 0 4 0 6l181 66-134-269c0-100 80-180 179-180 100 0 180 80 180 180z m-793-539l131 259 129-257z m635 238l128 260 131-260z" horiz-adv-x="1000" />

<glyph glyph-name="defending" unicode="&#xe827;" d="M955 206l-39 21c-10 6-23 8-35 6-12-4-22-12-27-22l-12-19-74 45c48 15 109 60 132 172 26 123-21 185-70 218-33 157-170 270-330 274-160-4-299-119-330-278-27-17-51-44-63-76-17-45-19-93-5-140 23-112 82-155 130-172l-74-43-11 19c-12 22-40 30-61 16l-39-21c-22-14-29-41-18-63l12-20 90-156 12-19c11-22 39-30 60-18l39 23c12 6 20 16 22 28 4 12 2 23-4 35l-12 20 45 27c43-72 115-100 205-100 92 0 162 28 205 100l47-27-12-20c-6-12-7-23-4-35 4-12 12-22 22-28l39-23c10-6 23-6 35-4 10 4 22 12 27 22l10 19 92 156 10 20c13 22 6 49-14 63z m-410 78c20 0 33-16 33-34 0-19-13-35-33-35-18 0-33 16-33 35 0 18 15 34 33 34z m-57-34c0-19-15-35-33-35-19 0-33 16-33 35 0 18 14 34 33 34 18 0 33-16 33-34z m-172 59c-78-16-111 39-126 113-16 75-6 139 72 155 78 15 185 15 201-59 14-74-70-193-147-209z m59-148c0 17 16 33 35 33 18 0 33-16 33-33 0-20-15-36-33-36-19 0-35 16-35 36z m80-125c-19 0-33 15-33 33 0 19 14 35 33 35 18 0 33-16 33-35 0-18-15-33-33-33z m12 125c0 17 14 33 33 33 20 0 33-16 33-33 0-20-13-36-33-36-19 0-33 16-33 36z m78-125c-18 0-33 15-33 33 0 19 15 35 33 35 20 0 33-16 33-35 0-18-13-33-33-33z m45 89c-18 0-33 16-33 36 0 17 15 33 33 33 19 0 35-16 35-33 0-20-16-36-35-36z m96 182c-79 16-163 135-149 209 16 74 123 74 201 59 78-16 88-80 73-155-16-74-49-127-125-111z" horiz-adv-x="1000" />

<glyph glyph-name="defusing" unicode="&#xe828;" d="M50-18c38 51 78 100 117 149 11 13 21 26 31 39 12 11 23 24 34 37 11 13 22 26 33 37-22 44-52 110-52 177l0 325c0 22 22 44 45 52l96-318c-23-7-37-22-37-44 0-30 22-52 59-52 29 0 59 22 59 52 0 22-15 37-37 44l96 318c30-8 44-22 44-52l0-332c0-67-22-133-51-178 11-11 22-24 33-37 11-13 22-26 33-37 8-9 15-17 22-26 43-51 85-102 125-155-43-33-92-60-144-78-41 50-84 98-128 148-15 15-37 37-52 60-15-15-37-37-52-60-6-6-11-13-17-19-38-44-74-87-109-130-54 19-104 46-148 80z" horiz-adv-x="750" />

<glyph glyph-name="determination" unicode="&#xe829;" d="M543 309c-186 10-367 45-543 106 86 29 168 68 248 111-47 68-88 140-123 215 82-28 166-49 252-65 4 35 8 72 14 108 154-8 306-36 455-82l19 82c-25 27-27 68-4 97 22 30 61 39 94 24 33-14 51-51 43-86-4-24-19-43-39-53l-158-854-139 30 100 424c-69 23-137 39-207 50-2-35-6-70-12-107z" horiz-adv-x="1000" />

<glyph glyph-name="early-game" unicode="&#xe82a;" d="M500 762c-234 0-424-191-424-426 0-234 190-424 424-424 234 0 424 190 424 424 0 235-190 426-424 426z m0-756c-182 0-330 149-330 330 0 184 148 330 330 330 182 0 330-146 330-330 0-181-148-330-330-330z m-166 907l332 0 0-94-332 0z m-207-270l66 68-33 34c-19 17-49 17-68 0-18-20-18-49 2-69z m779 33c20 20 20 49 0 69-17 17-47 17-66 0l-33-36 66-66z m-406-80l0-260 260 0c0 145-117 260-260 260z" horiz-adv-x="1000" />

<glyph glyph-name="economy" unicode="&#xe82b;" d="M500 866c250 0 453-203 453-453 0-250-203-454-453-454-250 0-453 204-453 454 0 250 203 453 453 453m0 47c-275 0-500-223-500-500 0-276 223-501 500-501 275 0 500 223 500 501 0 275-225 500-500 500z m0-123c-209 0-377-168-377-377 0-209 168-377 377-377 209 0 377 168 377 377 0 209-168 377-377 377z m123-526c-21-21-49-37-78-43l0-90-70 0 0 88c-26 2-49 8-71 18-19 8-39 21-54 35l50 55c26-24 59-36 94-36 14-1 28 2 39 10 10 8 14 18 14 30 0 7-2 13-6 21-4 6-10 12-18 16-13 5-27 9-41 13-33 8-64 26-89 49-18 20-26 43-26 70 0 28 10 53 30 73 21 19 50 33 80 37l0 84 70 0 0-84c35-6 68-22 94-47l-47-53c-24 20-51 30-80 31-12 0-24-3-33-9-8-4-14-14-14-24 0-6 2-11 6-17 6-6 13-10 21-14 10-4 24-10 43-16 31-7 61-25 86-46 18-22 27-49 25-79 2-25-7-52-25-72z" horiz-adv-x="1000" />

<glyph glyph-name="finishing" unicode="&#xe82c;" d="M844 385c12 26 21 51 29 78 10 49 14 100 12 149 0 170-104 260-250 291l-14-76 172-80-187-12 15-143-148-228 60 244-240 107 141 55-86 127c-139-33-233-123-233-285-2-51 2-100 12-149 8-27 18-52 29-78-29-37-49-82-50-131 0-78 66-123 166-146 17-72 31-143 93-184 45 8 90 10 135 10 45 0 90-2 135-10 60 41 76 112 94 184 99 23 166 68 166 146-2 49-20 94-51 131z m-545-131c-59 0-74 45-74 100 0 55 15 100 74 100 57 0 135-18 135-69-12-68-67-121-135-131z m201-72c-27 0-49-33-49 10 0 41 24 86 49 86 25 0 49-45 49-86 0-43-22-10-49-10z m201 72c-68 10-123 63-135 131 0 55 77 71 135 71 59 0 76-47 76-102 0-55-17-100-76-100z" horiz-adv-x="1000" />

<glyph glyph-name="planting" unicode="&#xe82d;" d="M900 788l-800 0c-55 0-100-45-100-100l0-551c0-55 45-99 100-99l800 0c55 0 100 44 100 99l0 551c0 55-45 100-100 100z m-765-600c8-10 19-16 31-14 6 0 12 0 18 2 7 4 13 8 19 12l20-29c-16-14-37-22-59-22-17 0-33 4-47 12-13 8-23 19-29 33-8 16-12 33-12 51 0 17 4 33 12 49 6 15 16 27 29 35 14 10 30 14 45 14 12 0 24-2 33-6 10-4 20-10 28-18l-20-25c-6 4-12 8-17 9-6 2-14 4-20 4-27 0-43-21-43-64 0-16 4-29 12-43z m265 8l-27 0 0-55-43 0 0 55-99 0 0 31 70 154 37-13-61-139 53 0 6 59 37 0 0-59 27 0z m137-59c-19 0-37 18-37 37 0 22 18 39 37 39 22 0 37-17 37-39 0-19-15-37-37-37z m0 100c-19 0-37 17-37 39 0 19 18 37 37 37 22 0 37-18 37-37 0-22-15-37-37-39z m108-100c-20 0-38 18-38 37 0 22 18 39 38 39 21 0 37-17 37-39 0-19-16-37-37-37z m0 100c-20 0-38 17-38 39 0 19 18 37 38 37 21 0 37-18 37-37 0-22-16-37-37-39z m107-100c-20 0-37 18-37 37 0 22 17 39 37 39 21 0 37-17 37-39 0-19-16-37-37-37z m0 100c-20 0-37 17-37 39 0 19 17 37 37 37 21 0 37-18 37-37 0-22-16-37-37-39z m107-100c-19 0-37 18-37 37 0 22 18 39 37 39 22 0 39-17 39-39-1-19-17-37-39-37z m0 100c-19 0-37 17-37 39 0 19 18 37 37 37 22 0 39-18 39-37-1-22-17-37-39-39z m41 226c0-29-23-50-50-50l-299 0c-29 0-51 21-51 50l0 200c0 27 22 50 51 50l299 0c27 0 50-23 50-50z" horiz-adv-x="1000" />

<glyph glyph-name="pistols" unicode="&#xe82e;" d="M900 743l0 47-93 0 0-47-752 0 0-116 945 0 0 116z m-845-203c25-2 49-16 62-38 14-21 14-48 4-72l-121-369 23-25 227 0 117 302 139 0c62-2 119 35 141 94l31 78 4 8 283 0 0 63-910 0z m549-88c-16-41-55-67-98-67l-119 0 41 106c13-37 45-63 82-71 12 0 17 8 17 18 0 4-2 8-5 12-20 17-30 45-30 70l139 0z" horiz-adv-x="1000" />

<glyph glyph-name="opening" unicode="&#xe82f;" d="M869 415l-269 64 103 434-572-502 269-65-103-434z" horiz-adv-x="1000" />

<glyph glyph-name="movements" unicode="&#xe830;" d="M47 743l465 0 47 93-512 0c-25 0-47-21-47-46 0-26 22-47 47-47z m0-190l373 0 47 96-420 0c-25 0-47-22-47-47 0-27 22-49 47-49z m-47-142c0-28 22-49 47-49l193 0c2 21 8 43 18 64 6 10 12 22 17 31l-228 0c-25 0-47-21-47-46z m996 398c2 4 4 8 4 12 0 10-8 15-18 15l-304 0c-10 0-20-5-24-15l-148-311c-12-21-29-39-53-47-13-6-31-13-47-17-27-12-50-31-62-59-8-17-12-35-14-53-2-23 4-46 14-66 17-29 45-53 76-64 31-12 80-30 94-38 19-9 37-21 52-37 16-17 32-37 43-58 14-20 28-41 43-59 16-16 36-23 55-23l256 0c18 0 31 13 31 29 0 4 0 8 0 12-12 27-37 49-66 52-4 0-8 0-12 0-12 0-25 2-37 4-20 4-39 16-51 32-51 58-88 129-107 203-10 45 0 94 23 133 39 70 225 320 252 355z" horiz-adv-x="1000" />

<glyph glyph-name="map-pool" unicode="&#xe831;" d="M260 65l-184-108c-15-9-35-9-51-2-15 10-25 26-25 45l0 717c0 18 10 33 25 43l184 108c16 9 35 9 51 0 15-8 25-26 25-43l0-717c0-18-10-33-25-43z m306-108l-183 108c-16 8-26 25-26 43l0 717c0 19 10 35 26 45 15 7 35 7 51-2l183-108c16-10 26-25 26-43l0-717c0-19-10-35-26-45-15-7-35-7-51 2z m409 108l-184-108c-16-9-35-9-51 0-15 8-25 26-25 43l0 717c0 18 10 33 25 43l184 108c16 9 35 9 51 2 15-10 25-26 25-45l0-717c0-18-10-33-25-43z" horiz-adv-x="1000" />

<glyph glyph-name="leadership" unicode="&#xe832;" d="M80 206l4-32c0-66 186-119 418-119 230 0 416 53 416 119l4 32c-137-18-277-26-416-24-143-2-285 6-426 24z m881 396l-445 164c-12 4-24 4-35 0l-440-164c-14-6-25-16-29-27-6-14-6-28-2-41l37-88c2-4 2-8 4-14l15-127c145-21 290-31 434-29 145-2 289 8 434 27l17 127c0 6 0 10 2 16l37 90c10 25-4 56-29 66z m-346-8c-2-88-45-170-115-222-70 52-113 134-115 222l0 8 115 72 115-72z" horiz-adv-x="1000" />

<glyph glyph-name="intuition" unicode="&#xe833;" d="M875 350c0-10 0-18 0-27l68-135c20 53 30 107 30 162-2 209-137 393-336 451l66-133c108-70 172-189 172-318z m-752-35c0 12 0 23 0 35-2 131 67 252 178 322l64 131c-125-37-230-125-289-242-58-117-66-254-19-377z m377 598l-500-1001 1000 0z m0-741c-90 0-172 47-217 123 45 78 129 125 219 125 90 0 172-47 217-125-45-76-129-125-219-123z m94 123c0-50-41-93-94-93-53 0-94 43-94 93 0 53 41 96 94 96 53 0 94-43 94-96z" horiz-adv-x="1000" />

<glyph glyph-name="timer-plain" unicode="&#xe834;" d="M500 711c-71 0-141-21-201-61-59-39-105-96-133-162-27-66-34-138-20-208 14-70 48-135 99-185 50-51 115-85 185-99 70-14 142-7 208 20 66 28 123 74 162 133 40 60 61 130 61 201 0 96-38 188-106 255-67 68-159 106-255 106z m242-431h-254c-8 0-15 3-21 9-5 5-8 13-8 20v267c0 4 0 7 2 11 1 3 4 7 6 9 3 3 6 5 10 6 3 2 7 2 11 2h28c4 0 8 0 11-2 4-1 7-3 10-6 2-2 5-6 6-9 2-4 2-7 2-11v-205h197c7 0 14-4 20-9 5-5 8-13 8-20v-33c0-4-1-7-2-11-1-3-3-7-6-9-3-3-6-5-9-7-4-1-8-2-11-2z" horiz-adv-x="1000" />

<glyph glyph-name="grenades" unicode="&#xe835;" d="M557-88c181 0 336 129 369 307l-740 0c35-178 189-307 371-307z m-262 794l143 0 0-59c-131-43-227-152-252-287l740 0c-26 135-121 244-252 287l0 172 23 0c28 0 49 21 49 47 0 25-21 47-49 47l-330 0-164-207-129-161 0-562c0-12 10-24 24-24 11 0 23 12 23 24l0 506z" horiz-adv-x="1000" />

<glyph glyph-name="improvisation" unicode="&#xe836;" d="M705 612c-27 27-57 53-86 78 22 12 43 23 65 33 52 24 107 41 166 47-8-57-24-111-49-164 35-39 68-80 99-123 65 109 94 234 88 361l-6 59-56 8c-129 5-256-28-365-96-22-12-43-24-67-37-144 92-293 138-420 125l-56-6-6-57c-20-191 95-433 291-631 23-23 49-44 72-66-23-14-49-25-68-35-53-26-108-41-166-49 7 59 23 113 49 166-36 39-67 80-96 125-67-109-100-236-94-365l6-57 57-6c128-8 255 24 365 90 23 12 49 26 70 41 150-100 307-150 440-137l56 6 6 57c18 191-96 432-295 633z m-86-471c18 16 35 31 53 49 10 6 18 16 25 23l26 26c-22 43-49 84-78 123-14-18-30-33-45-49-18-16-32-31-49-45-16-14-35-29-53-43-33 25-64 53-94 82-144 143-238 316-252 457 79-12 153-37 221-76-19-16-39-33-57-51l-43-43c22-43 49-84 77-123 13 16 29 31 43 49 15 16 31 29 48 43 18 14 38 31 57 47 39-29 74-61 109-94 143-144 239-318 252-457-84 10-166 39-240 82z" horiz-adv-x="1000" />

<glyph glyph-name="flexibility" unicode="&#xe837;" d="M1000 104c-102 57-211 102-322 137 19-26 41-51 60-76-203-12-402-59-590-141l686 623 20-88 140 350-349-141 86-18-612-671c78 181 123 375 133 572 25-18 51-41 74-61-33 112-78 219-135 323-25-108-62-211-111-311 27 16 53 31 78 47 2-242-51-483-154-701 0 0 0-2 0-2-4-8-4-14 0-22 0 0 0-2 2-2l2-4c2-2 4-2 4-4 8-2 13-2 21 0l2 0c221 106 461 159 703 159-17-28-33-53-47-79 98 47 202 85 309 110z" horiz-adv-x="1000" />

<glyph glyph-name="transfer-x3" unicode="&#xe838;" d="M393 380c18-16 18-44 0-60l-216-189c-10-9-26-8-35 3-9 10-8 26 2 35l207 181-207 181c-10 9-11 25-2 36 9 10 25 11 35 2l216-189-17-19 17 19z m229 0c18-16 18-44 0-60l-216-189c-11-9-26-8-35 3-10 10-8 26 2 35l207 181-207 181c-10 9-12 25-2 36 9 10 24 11 35 2l216-189-17-19 17 19z m229 0c18-16 18-44 0-60l-216-189c-10-9-26-8-35 3-9 10-8 26 2 35l207 181-207 181c-10 9-11 25-2 36 9 10 25 11 35 2l216-189-17-19 17 19z" horiz-adv-x="1000" />

<glyph glyph-name="flair" unicode="&#xe839;" d="M830 686l-19 59 0 2c-20 33-57 52-94 46-49 0-88-25-94-56l-6-67c39 20 82 30 125 30 30 0 59-4 88-14z m-449-16l-6 67c-4 31-43 56-94 56-35 4-70-15-88-46l-23-63c29 12 59 16 88 16 43 0 86-10 123-30z m603-359l-80 250c-11 53-82 92-162 92-82 0-156-45-164-100l0-2c-21 20-49 30-78 30-27 0-55-12-74-32l0 2c-12 57-82 102-168 102-78 0-145-37-158-86l-86-258c-4-18-8-37-8-55 0-117 90-214 207-222 117-8 221 76 236 193 32-18 71-18 102 0 15-117 119-201 236-193 117 8 207 105 207 222 0 20-4 37-10 57z m-755-209c-63-2-118 35-143 92-23 56-12 123 31 168 45 43 110 56 168 33 57-23 94-80 94-141 0-84-66-152-150-152z m271 156c-33 0-60 28-60 61 0 8 0 15 3 21 2 10 8 18 16 24 10 11 25 17 41 17 16 0 29-6 41-17 8-6 14-14 16-24 4-6 4-13 4-21 0-10-2-22-8-31-12-18-31-30-53-30z m272-156c-84 0-153 68-153 152 0 84 69 153 153 153 84 0 152-69 152-153 0-41-16-80-45-107-27-29-66-45-107-45z" horiz-adv-x="1000" />

<glyph glyph-name="positioning" unicode="&#xe83a;" d="M900 813l-533-268-267-533 533 268z m-642-643l150 301 151-150z m660 518l-53-102c28-52 41-113 41-173 0-225-181-407-406-407-60 0-121 14-174 41l-101-53c197-130 461-103 629 65 168 168 195 432 64 629z m-418 131c61 0 119-14 174-41l101 53c-197 130-460 103-628-65-169-168-196-432-65-629l53 102c-28 54-41 113-41 174 0 224 181 406 406 406z" horiz-adv-x="1000" />

<glyph glyph-name="retrain" unicode="&#xe83b;" d="M631 549c0-49-39-88-86-88-49 0-88 39-88 88 0 47 39 86 88 86 47 0 86-39 86-86z m-96 364c-211 0-371-178-371-395l-86-182c-4-7-2-15 2-21 4-6 10-10 18-10l72 0c0-76 23-150 64-213 24-27 73-29 127-21 8 2 18-2 24-8 8-6 10-14 12-22l0-99c-2-8 3-18 9-24 8-6 18-8 28-6l349 86c14 4 24 16 24 30l0 205c0 8 2 15 8 21 68 71 107 164 107 264 2 215-170 393-387 395z m274-407l-51 0c-6-27-16-52-31-76l35-37-61-62-37 37c-21-16-49-28-76-34l0-50-86 0 0 50c-27 6-55 18-78 34l-31-32-63 61 31 33c-15 24-25 49-31 76l-45 0 0 86 47 0c6 28 16 55 29 78l-31 32 61 60 33-31c23 16 51 25 78 31l0 45 88 0 0-47c25-6 51-15 74-31l37 37 61-62-35-36c15-23 25-48 31-76l51 0z" horiz-adv-x="1000" />

<glyph glyph-name="chartpolar" unicode="&#xe83c;" d="M469 71v-109c0-2-1-4-2-6 0-2-2-4-3-6-2-1-4-2-6-3-2-1-4-1-7 0-90 11-174 51-238 116-64 64-105 148-116 238-1 3 0 5 0 7 1 2 2 4 4 6 1 1 3 3 5 3 2 1 4 2 6 2h109c7-64 35-123 80-168 45-45 104-73 168-80z m248 248h-186v-185c47 6 90 28 124 61 33 34 55 77 62 124z m-186 248v-186h186c-7 47-29 90-62 124-34 33-77 55-124 62z m357-248h-108c-8-64-36-123-81-168-45-45-104-73-168-80v-109c0-2 1-4 2-6 1-2 2-4 4-6 1-1 3-2 5-3 2-1 5-1 7 0 90 11 174 51 238 116 64 64 105 148 116 238 1 3 0 5 0 7-1 2-2 4-3 6-2 1-4 3-6 3-2 1-4 2-6 2z m-108 62h108c2 0 4 1 6 2 2 1 4 2 6 4 1 1 2 3 3 5 1 2 1 5 1 7-12 90-52 174-117 238-64 64-148 105-238 116-2 1-5 0-7 0-2-1-4-2-5-3-2-2-3-4-4-6-1-2-2-4-2-6v-108c64-8 123-36 168-81 45-45 73-104 81-168z m-329 372c-90-11-174-52-238-116-64-64-105-148-116-238-1-2 0-5 0-7 1-2 2-4 4-5 1-2 3-3 5-4 2-1 4-2 6-2h109c7 64 35 123 80 168 45 45 104 73 168 81v108c0 2-1 4-2 6 0 2-2 4-3 6-2 1-4 2-6 3-2 0-4 1-7 0z m-167-372h185v186c-47-7-90-29-124-62-33-34-55-77-61-124z m185-247v185h-185c6-47 28-90 61-124 34-33 77-55 124-61z" horiz-adv-x="1000" />

<glyph glyph-name="spray" unicode="&#xe83d;" d="M301 194c0-39-31-71-70-71-40 0-73 32-73 71 0 39 33 72 73 72 39 0 70-33 70-72z m39 119l-25 127-108-100-66-11-119 43 66-223-88-172 203 64 186-17 17 170z m-109-236c-49 0-92 29-110 72-19 45-10 96 26 129 33 35 84 45 128 25 43-17 73-60 73-109 0-65-53-117-117-117z m341 595c0-39-33-70-72-70-39 0-70 31-70 70 0 39 31 71 70 71 39 0 72-32 72-71z m86-33l-2 133-189 141-51-102-113 18 37-137 0-100 80-43 72-99 90 113 137-45z m-158-84c-64 0-117 53-117 117 0 67 53 118 117 118 66 0 119-53 119-118 0-31-13-60-35-84-23-21-53-33-84-33z m342-361c0-39-31-71-70-71-40 0-71 32-71 71 0 39 31 70 71 70 39 0 70-31 70-70z m58-94l65 59-63 78 53 105-96-11-109 33-125 64 0-180-78 26 19-154 92-36 0-74 168 18 174-116z m-127-23c-48-2-91 27-109 72-19 43-10 96 26 129 33 33 83 43 128 25 43-19 73-62 73-109 0-65-53-117-118-117z" horiz-adv-x="1000" />

<glyph glyph-name="stamina" unicode="&#xe83e;" d="M953 319l-383 0c-29 0-58 12-80 33-21 21-33 51-33 80l0 47-410 0c-25 0-47-20-47-47 0-25 22-47 47-47l320 0c22-94 106-162 203-162l383 0c26 0 47 22 47 47 0 27-21 49-47 49z m-426 113c0-23 20-43 43-43l354 0 0 193c0 182-147 331-330 331l-188 0c-181 0-330-149-330-331l0-31 451 0z m-189-340l0 223-94 0 0-403 94 0 0 114 143 140c-18 6-34 14-49 22z" horiz-adv-x="1000" />

<glyph glyph-name="minus-3" unicode="&#xe83f;" d="M177 365c0 24 16 44 36 44l515 0c20 0 37-20 37-44 0-25-17-44-37-44l-515 0c-20 0-36 19-36 44z" horiz-adv-x="941" />

<glyph glyph-name="timing" unicode="&#xe840;" d="M219 6l-94 0 0-94 750 0 0 94-90 0 0 168-283 239-283-239z m94 125l189 159 189-159 0-125-378 0z m470 688l92 0 0 94-750 0 0-94 92 0 0-168 283-238 283 238z" horiz-adv-x="1000" />

<glyph glyph-name="weapon-pool" unicode="&#xe841;" d="M854 772l0 141-94-47 0-47-520 0-240 47 0-330 47 0 0 93 193 0 0-447 43 0 0-270 153 0 0 270 41 0 0 287 93 0c65 0 118 53 118 117l0 43 166 0 0 75 146 0 0 68z m-215-186c0-39-32-70-71-70l-93 0 0 84c15-23 43-41 72-47 10 0 16 8 16 18 0 4-2 8-6 11-12 14-22 30-26 47l108 0z" horiz-adv-x="1000" />

<glyph glyph-name="work-ethic" unicode="&#xe842;" d="M801 213c0-27-24-50-51-50-27 0-51 23-51 50l0 51-398 0 0-51c0-27-24-50-51-50-27 0-51 23-51 50l0 51-199 0 0-277 1000 0 0 275-199 0z m0 373l0 100c0 84-69 150-151 150l-300 0c-82 0-151-66-151-150l0-100-199 0 0-224 1000 0 0 224z m-500 100c0 29 21 51 49 51l300 0c28 0 49-22 49-51l0-100-398 0z" horiz-adv-x="1000" />

<glyph glyph-name="vision" unicode="&#xe843;" d="M592 231l0-121c144 43 240 183 224 336-13 150-134 271-287 285-150 14-291-82-334-227l123 0c39 80 125 127 215 114 88-14 158-84 172-172 14-90-33-176-113-215z m21 182c0 62-50 113-113 113-62 0-113-51-113-113l-387 0c0-272 217-495 488-501l12 0 0 387c63 0 113 51 113 114z m-113 500c-240 0-447-172-492-409l92 0c45 196 226 330 429 317 202-16 362-176 377-377 16-201-119-385-314-430l0-92c250 51 422 282 398 535-23 256-234 452-490 456z" horiz-adv-x="1000" />

<glyph glyph-name="cz75-a" unicode="&#xe844;" d="M1035 607c22-2 45-1 67-1 11 2 22 1 33 1 68 0 136-1 204 0 1 4 1 9 5 11 7 0 15-1 23-1 3-5 6-11 11-14 3-3 3-8 6-11 35 0 70 0 105-1 6-13 6-28 0-41-35 0-71 0-107 0-3-14 1-28-3-42-2-5-7-6-12-6-33-1-65 0-98-1 11 1 19-8 28-12 3-2 6-5 4-8-5-4-11-6-17-9-9 0-18 0-27-1 29-89 56-178 84-268 5-17 11-35 16-53-3-2-5-4-8-6 0-5 0-10-1-15-4-3-10-4-15-4-5-1-6-8-11-7-7 0-12-4-19-4-13 0-26-1-40 0-4 5-6 12-8 18-25 79-50 158-75 236-11 38-23 75-34 113-6-5-10-12-13-20-2-7 2-15 2-22 0-13 0-25 0-37-10-7-21-11-32-16-18-6-37-9-56-11-16-1-31 2-46 8-13 3-27 9-40 2-13-4-20-17-23-29-7-24-16-47-23-70-5-18-12-35-15-54-3-12-2-25-1-37 7-4 16-6 18-13-5-7-12-12-18-17-2-1-5-2-7-1-39-1-77-1-116-1-5-1-8 2-12 4 0 6 0 11 0 16-13 2-31 5-36 20-2 21 1 42 6 62 9 27 17 53 26 80 4 11 10 22 15 33 9 17 21 32 29 50 5 16 1 38-14 47-15 10-34 4-50 5-7 4-4 13-4 19 16 5 35 4 47 17 6 5 5 12 6 19 1 9-3 18-10 24-5 5-11 10-10 17-1 6 3 11 7 15 3 2 6 4 10 5 5 0 10-2 15-4 4 6 9 11 14 16 10 1 20 0 29 0 3 5 4 10 6 15 5 0 10 0 15 0 2-5 4-10 6-15 55 0 109 0 164-1z m-247-22c-2 0-4-1-6-2-1-2-2-3-3-5 2-5 5-8 10-8 2 2 6 4 6 8 1 4-5 5-7 7z m300-104c-13 2-25-8-38-9 0-2 0-4 0-6-4-7-11-12-13-20-2-13 1-27 11-36 5-4 12-8 12-15-14-1-22 11-30 21-8 13-1 28-2 42 1 4-2 5-4 8 0 1 0 4 0 6-10 0-19-6-27-13-8-8-15-20-14-32 1-17 15-31 32-36 26-6 55-4 79 8 13 7 24 19 27 34 1 11 1 23-6 32-6 9-16 15-27 16z" horiz-adv-x="2182" />

<glyph glyph-name="ak47" unicode="&#xe845;" d="M1898 499l-5 12-27 2v76h-28v-5l-2-11c-2-1-4-6-7-13l-9-20-11-27-9-2h-109l-13 8-17 17-19 23h-125l-12 5-14 4-17 5-298 3-17-1c-4-1-6-2-8-4l-4-3h-387l-6 5-63-54-39-12-30-8-17-4-30 7-19 6-101-6-69-6-30-1-36 1-30-8c-10-2-19-7-26-12l14-197 165 54 125 46 47 17 42 15 31 10 14 5c7 2 13 0 18-6l12-8-12-17-21-38-21-39-10-22c2-17 8-28 17-33 9-6 19-8 29-7l28 6 12 5c4 14 10 28 18 42 9 14 18 27 28 39l25 27 14 10c12-10 24-15 37-16l33 2c12 2 23 6 33 12l21-3 6 5 8 0c15-46 34-86 57-120 24-34 46-63 68-85 25-27 52-50 79-69l32 51 23 36 12 17c-38 26-67 53-87 80-20 27-35 51-44 73-11 25-16 49-16 73h95l10-6c1-2 3-3 5-4l14-2 13 3 18 10 25 13h210l3 12h133l11-9 10 12h188l22-9 12 21h8l8-2 12 4 3 7-3 8z m-967-108c-5-5-10-7-17-7h-38c-7 0-14 2-19 7-5 4-7 10-7 16 0 7 2 14 7 19 5 4 12 6 19 6l38 1c7 0 12-3 17-7 4-5 6-12 6-19l-6-16z" horiz-adv-x="2182" />

<glyph glyph-name="assaultsuit" unicode="&#xe846;" d="M800 721c-7 0-7-7-14-7-36-14-93-43-157-28-86 14-186 128-193 157-7-22-86-122-165-157-78-36-171 7-214 28-43-171-21-657 379-857 378 200 400 657 364 864z m-179-464h-142v-71h-100v71h-143v114c0 79 64 150 150 150h85c79 0 150-64 150-150v-114z" horiz-adv-x="857" />

<glyph glyph-name="kevlar" unicode="&#xe847;" d="M259 695c-78-34-169 10-204 29-38-166-20-634 364-829 363 192 387 636 353 835-29-12-93-46-168-35-78 12-177 127-185 152-10-23-82-118-160-152z" horiz-adv-x="786" />

<glyph glyph-name="glock" unicode="&#xe848;" d="M1493 509c0-19 1-62-26-64-17-2-34-3-50-3-33-1-66-3-98-4-18 0-35 0-53-2-10 0-40 1-43-13-2-16-1-33 2-49 1-7 5-14 5-22 0-2-11-15-13-15-33-4-66-6-100-5-16 1-33-1-49 2-9 1-18 3-27 4-9 2-12 6-22 4-13-2-24-23-31-34-17-26-27-54-38-83-7-17-14-34-20-51-6-18-18-40-19-58-1-12-8-20-19-20-5 0-10 0-15 0-51 0-103 0-154 0 1 6 3 12 4 18-17 0-34 1-45 17-12 19-2 43 3 63 0-1 0-1 0-2 20 27 37 56 56 83 9 14 19 28 29 41 9 14 14 32 21 47 14 31 16 75-17 94-9 4-18 8-26 13-9 4-10 16-10 25-1 17 0 33 0 50 0 7 0 14 0 21 0 6-6 10-3 15 4 7 19 6 25 7 11 1 13 0 19 9 5 9 7 8 17 7 11 0 12-3 14-13 1-3 9-1 11-1 70 0 140 0 209 0 96 0 192 0 288 0 31 0 63 0 94 0 7 0 14 0 21 0 2 0 2-1 3 1 2 4 7 4 10 5 8 3 5 2 11 0 5-2 3-4 9-4 6 0 12 0 18 0 7 0 4-12 5-17 1-22 2-44 4-66z m-316-78c-33 0-66 0-98 0-14 0-19-6-19-21 0-7-5-44 9-44 33 0 66 0 100 0 11 0 17 5 17 17 0 8 5 48-9 48z" horiz-adv-x="2182" />

<glyph glyph-name="galilar" unicode="&#xe849;" d="M1960 541c13 0 7-44 7-53 0-5-3-4-8-4-12 0-23 0-35 0-30 0-60 1-90 0-35-1-70-2-106-2-14 0-29 0-43-1-10 0-20 0-30 0-5 0-10 0-15 0-7 0-3-2-6-9-4-12-26-27-39-21-9 4-17 13-25 20-2 2-14 4-18 5-9 3-16 5-25 6-34 4-68 0-101-1-9 0-7-5-9-13-1-4-4-5-8-5-7-1-6-1-7-8 0-8-1-16-2-24 0-1-16 0-18-1-36 0-73 0-110-1-34 0-70 2-103-3-9-1-17-2-26-3-5-1-21-7-26-5-11 3-9 40-9 50-23-5-46-9-68-13-6-1-12-1-17-2 0 0-3-13-3-15-4-10 1-28 2-39 2-16 5-32 9-48 11-42 25-82 41-123 8-20 15-43 27-62-34-12-68-30-98-47-4-2-11-7-15-5-4 5-8 11-11 17-6 13-12 27-16 40-6 17-11 33-16 49-18 56-31 113-46 169-6-3-14-5-20-9-4-2-6-6-10-8-9-4-24-5-34-6-18-1-33 4-49 11-5 3-9 8-14 4-3-3-8-4-12-6-6-3-8-16-10-21-4-10-7-19-10-28-5-13-9-27-10-40-1-18-3-36-3-54 0-6 0-13-8-11-11 3-22 8-33 13-16 8-32 17-48 25-7 4 0 12 3 18 13 31 26 63 37 96 4 11 14 29 4 40-5 6-10 11-15 17-2 3-17 3-21 3-32-1-64-1-96-3-36-2-72-4-108-5-54-2-102-39-143-71-21-18-44-35-63-55-5-5-9-13-14-16-14-7-17 8-20 18-3 15-2 30-3 45-2 16-3 33-4 49-2 16-3 33-6 49-3 23-17 65 20 65 22 0 45 0 68 0 88 0 176 0 264 0 10 0 19 0 29 0 4 0 7-1 11 0 9 0 9 17 20 19 16 4 33 5 49 11 9 4 14 6 22 12 9 8 10 15 11 26 3 19-1 41 25 40 8 0 12-7 18-13 8-8 12-5 23-4 10 1 12 1 17-8 4-7 5-15 7-23 0-2 43 2 48 2 15 1 30-4 44-5 10-1 21 0 32 0 45 0 90 0 135 0 8 0 16 0 24 0-1 6-2 13-5 19 9 0 18 0 27 0 13 0 1-7 9-11 4-2 11-1 15-1 32 0 64 0 97 0 93 0 185 0 278 0 24 0 48 0 72 0 0 4 0 8 0 12 0 5-5 12-2 16 2 4 7 19 11 19 10 1 19 2 29 3 7 0 4-7 4-13 0-11 0-22 0-33 0-3 0-6 0-9 0-1-6-2-6-4 0-3 18-13 21-16 12-9 29-10 43-11 65-3 130-2 195-1 19 1 39 0 58 3 12 2 51 13 60 2z m-1158-101c-19 0-21-27-12-39 7-7 16-6 25-6 8 0 51-5 55 7 5 16 7 38-17 38-17 0-34 0-51 0z m-579 1c4-30 6-60 11-90 49 43 101 81 154 119-56 0-113 0-169 0 1-10 2-19 4-29z" horiz-adv-x="2182" />

<glyph glyph-name="famas" unicode="&#xe84a;" d="M1738 436l4-12c1-9-5-17-4-26-20 0-40-2-60-3-16 0-31 6-48 6-28 0-56 0-84 0-20 0-35-11-55-12l-6 5h-3c-3-18-8-31-18-46-16-5-29-5-46-5-34 0-68 0-102 0-34 0-68 0-102 0-16 0-32 2-48-3 0-18 3-40-8-55-15-9-40-3-58-2-15 2-30 4-45 8l-12-8c-10-8-8-24-8-35-8-4-12-15-16-22 1-4 1-8 2-12l4-5h-4c-11-13-15-24-15-41l3-4c-14 0-30 5-44 8-7 2-13 4-19 7-3 1-6 1-8 3-8 3-9 9-15 13 2 31 4 67 18 95 9 19 29 31 31 52 0 4-3 8-11 12-20 4-35 3-54-4-19-7-36-20-47-37-9-14-13-38-35-38 0-20 2-40 3-60 1-24 4-49 4-73-32-23-69-31-109-31-3 70-8 140-9 210-25-4-50-8-74-15-1-5-2-21-9-21-10-2-23-7-34-8-2 4-5 7-9 11l-1 6c-41-21-85-25-132-27-1 1-2 3-4 3-12 37-22 74-25 113-3 26-8 68 9 90 7 10 15 18 22 29 4 7 9 13 14 20v3h128v-3c8-11 16-21 26-31 16 8 28 17 43 29 66 0 133-10 199-3 4 10 7 19 9 29 2 7 7 19 7 27 16 15 51 16 72 16 29-1 57-2 85-3 75-3 150-5 225-7 35-1 71-2 106-3 35-1 71-3 106-3 3 1 7-2 10-8 16-18 14-50 13-73-1-16-5-32-7-48 12 1 24-3 36-5 1-2 2-4 2-6 18 0 35 0 53 0 16 0 35-3 50 2 33 9 66 8 99 6l5-2v-3h0z m-329 95h-439c-15 0-22-8-22-24v-22c0-15 7-23 22-23 135 0 269 0 404 0 12 0 42-5 51 7 11 9 10 46 0 55-4 4-9 7-16 7z" horiz-adv-x="2182" />

<glyph glyph-name="calendar" unicode="&#xe84b;" d="M835 750h-112v38c0 9-4 19-11 26-7 7-17 11-27 11-10 0-19-4-26-11-7-7-11-17-11-26v-38h-375v38c0 9-4 19-11 26-7 7-17 11-27 11-10 0-19-4-26-11-8-7-11-17-11-26v-38h-113c-20 0-39-8-53-22-14-14-22-33-22-53v-750c0-20 8-39 22-53 14-14 33-22 53-22h750c20 0 39 8 53 22 14 14 22 33 22 53v750c0 20-8 39-22 53-14 14-33 22-53 22z m-487-731c-30 0-59 12-80 33-7 7-11 16-11 26 0 10 4 20 11 27 3 3 7 6 12 8 5 2 9 3 14 3 5 0 10-1 15-3 4-2 8-5 12-8 7-7 17-11 27-11 9 0 19 4 26 11 7 7 11 16 11 26 0 10-4 20-11 27-7 7-17 11-26 11h-12l-2 1h-1l-3 1h0l-3 2h-1l-2 1-2 1-1 1-1 2c-3 3-5 6-6 9-2 3-2 5-3 8 0 1 0 1 0 2 0 0 0 0-1 1 0 0 0 0 0 0v8 4c0 1 1 1 1 1v2c0 1 0 2 0 2 0 1 0 1 0 2l1 1c0 1 0 2 1 2l1 2v2l1 2 1 1 1 2 1 1 26 33h-53c-10 0-19 4-26 11-7 7-11 16-11 26 0 10 4 20 11 27 7 7 16 11 26 11h132c7 0 13-3 19-6 6-4 11-9 14-16 3-6 4-13 4-20-1-7-4-14-8-19l-42-52c20-14 35-33 44-56 8-23 8-48 1-71-7-23-21-43-41-57-19-14-42-22-66-22z m300 37c0-10-4-19-11-26-7-7-17-11-27-11-10 0-19 4-26 11-7 7-11 16-11 26v169l-15-11c-8-6-18-9-28-7-10 1-19 6-25 14-6 8-8 18-7 28 1 10 7 19 15 25l75 56c5 4 12 7 19 7 7 1 14 0 20-3 6-4 11-8 15-14 4-6 6-13 6-20v-244z m187 469h-750v150h113v-37c0-10 3-20 11-27 7-7 16-11 26-11 10 0 20 4 27 11 7 7 11 17 11 27v37h375v-37c0-10 4-20 11-27 7-7 16-11 26-11 10 0 20 4 27 11 7 7 11 17 11 27v37h112v-150z" horiz-adv-x="950" />

<glyph glyph-name="dual-berettas" unicode="&#xe84c;" d="M1035 596c2 5 6 8 10 12 4 5 10 7 18 5 5-1 11-2 16-4 3-5 8-4 10-11 2-11 4-21 7-31 2-7-3-23-3-31-2-22-6-44-5-66h-51c-1-3-2-5-4-7-8-4-22-2-31-2-12-1-24 0-36 0-22 0-44 1-66 1-12 0-23 1-35-1-19-4-31-16-44-28-18-17-13-40-11-61l-6-6v-2c-24-9-50-19-75-20-16-1-29-1-45 2-17 2-41 9-59 4l-14-8c-8-10-10-21-14-33-7-24-14-47-21-70-4-13-6-23-6-36 0-17 2-33 5-49 0-15-3-25-10-31-19-12-48-6-70-6-25 0-52-4-75 6l-7 9c-1 9-2 17-2 26-16 2-29 3-43 10-1 3-1 5-3 7 1 13-2 26-1 39 2 14 6 29 7 44 14 26 25 54 37 81 7 16 13 32 21 48 10 21 20 37 7 60-8 17-38 16-55 19-8 9-5 16-2 26 5 5 15 7 22 8 17 16 26 32 33 55-2 11-5 23-4 34 1 5 3 8 5 9 13 1 22-2 34-4 12 5 24 11 37 12v17c9 0 19-2 29-3 3 0 4-2 4-3l3-15c25 0 51 3 76 2 15 0 31 0 46-1 11 0 26 2 37-1l5-8h329v2h0z m133-29c-1 6-2 13-2 19 1 6 4 9 7 10 12 1 21-2 32-4 13 3 25 12 38 12v16c10 1 20-1 30-2 6-5 6-12 7-19 53 0 106 1 159 0l5-7h327v1l2 4c4 2 7 5 9 9 18 16 42-1 46-19 2-11 11-37 1-46-1-25-4-50-3-74h-52l-3-6c-18-6-43-3-62-3-22 0-45 1-68 2-27 1-50-1-71-20-10-9-22-18-24-32 0-5-1-11-1-16 0-5 5-19 2-22l-6-6v-3c-27-11-56-19-84-20-32-2-80 19-108-1-14-17-17-41-23-61-6-22-10-46-19-67-1-29 15-66-4-92-17-9-38-6-57-6-25 0-50 0-74 0l-1 2c-5 1-9 2-14 4-6 3-10 12-10 25 1 3 2 7 3 11-16 2-31 2-45 10v3l-2 4c1 11-3 21-2 32 1 17 5 32 9 48h1c7 27 22 54 34 79 12 28 32 60 36 90l-8 23c-8 16-38 17-55 19-7 5-8 20-1 26 4 4 15 8 21 9 20 19 36 38 30 68z m-445-116c-15 0-29 0-43 0-16-1-26-2-40-9-6-4-10-8-11-13-5-10-1-21 1-31 4-5 9-9 14-14 13-3 24-11 38-11 12-1 24-1 36-2 39 6 60 16 64 29 1 12 2 21-5 32-4 7-11 14-22 19h-32v0z m708-3c-10 0-26 2-36-2h-2c-10-5-23-9-26-21-2-10-5-21 1-31h1l13-13c13-5 24-11 38-12 12 0 25-1 37-1 39 5 59 15 62 29l2 12-6 20c-4 8-11 14-22 19-20 0-41 0-62 0z" horiz-adv-x="2182" />

<glyph glyph-name="c4" unicode="&#xe84d;" d="M830 594c0 10-4 16-14 16l-298 0c-4 0-8-2-10-4l-6-12 0-191 6-10 10-4 298 0c10 0 14 4 14 14l0 191m57 55c8-10 11-20 11-33l0-409c0-11-3-21-11-29-8-10-20-15-33-15l-709 0c-12 0-22 5-32 15-7 8-13 18-13 29l0 409c0 13 6 23 13 33 10 10 20 14 32 14l709 0c13 0 25-4 33-14m-203-152l-12 5 4 8 14-8 0 12 9 0-2-12 12 8 4-8-14-5 14-8-4-8-12 6 2-14-9 0 0 14-14-6-4 8 12 8m-30 5l-13-5 13-8-6-8-13 6 4-14-12 0 0 14-10-6-6 8 12 8-12 5 6 8 10-8 0 12 12 0-4-12 13 8 6-8m0-242l-2 10-9 4-39 0c-4 0-6-2-8-4-2-2-4-6-4-10l0-37 4-10 8-4 39 0 9 4 2 10 0 37m36 14l-10-4c-2-2-4-6-4-10l0-37 4-10 10-4 39 0 7 4 4 10 0 37-4 10-7 4-39 0m-36 78l-2 8-9 4-39 0-8-4-4-8 0-39 4-8 8-6 39 0 9 6 2 8 0 39m82 8l-7 4-39 0-10-4c-2-2-4-6-4-8l0-39 4-8 10-6 39 0 7 6 4 8 0 39-4 8m86-90l-9 4-38 0-9-4c-4-2-4-6-4-10l0-37 4-10 9-4 38 0 9 4 4 10 0 37-4 10m0 90l-9 4-38 0-9-4-4-8 0-39 4-8 9-6 38 0 9 6 4 8 0 39-4 8m-228 142l-14-5 14-8-4-8-14 6 2-14-10 0 0 14-11-6-4 8 10 8-10 5 4 8 11-8 0 12 10 0-2-12 14 8 4-8m-237-160l12 18 8 21 4 0-2-21-2-18 0-45-43 0 23 45m200-68l-37 0c-2 0-6-2-10-4l-6-10 0-37 6-10 10-4 37 0 9 4 4 10 0 37-4 10-9 4m0 90l-37 0-10-4-6-8 0-39 6-8c4-4 8-6 10-6l37 0 9 6 4 8 0 39-4 8-9 4m-268-73l0-31 88 0 0-47 45 0 0 47 27 0 0 37-27 0 0 119-57 0-76-125m-49 41l16 0 12-3 7 35-17 4-18 2c-29 0-52-8-68-24-14-15-20-33-20-56 0-26 6-45 20-59 14-14 33-22 59-22l25 4 17 4-3 37-14-6-16 0c-9 0-19 4-27 12-10 6-14 16-14 31 0 10 4 20 12 28 6 10 16 13 29 13" horiz-adv-x="1000" />

<glyph glyph-name="decoy" unicode="&#xe84e;" d="M609 824c-24 0-47-12-63-32-2 0-3 1-5 1h-169c-1 0-3-1-4-1l-13-7c-4-2-6-5-6-9v-28c0-4 3-8 7-10l17-5c4-2 7-6 7-10v-51c0-3-1-5-3-7l-25-25c-2-2-5-3-7-3h-33c-3 0-6-2-8-4l-4-4c-2-2-3-4-3-7v-106c0-3 1-6 3-8l15-14c2-2 3-5 3-8v-58c0-6 4-10 10-10 6 0 11-5 11-11v-52c0-5-5-10-11-10-6 0-10-5-10-11v-52c0-5 4-10 10-10 6 0 11-5 11-10v-42c0-6-5-11-11-11-6 0-10-4-10-10v-52c0-6 4-10 10-10 6 0 11-5 11-11v-52c0-6-5-10-11-10-6 0-10-5-10-11v-60c0-2-1-3-1-5l-19-37c-1-1-1-3-1-5v-60c0-5 5-10 10-10h271c6 0 11 5 11 10v60c0 2-1 4-2 5l-18 37c-1 2-1 3-1 5v60c0 6-5 11-11 11-5 0-10 4-10 10v52c0 6 5 11 10 11 6 0 11 4 11 10v52c0 6-5 10-11 10-5 0-10 5-10 11v52c0 6 5 10 10 10 6 0 11 5 11 11v52c0 6-5 10-11 10-5 0-10 5-10 11v41c0 6 5 11 10 11 6 0 11 4 11 10v58c0 3 1 6 3 8l25 25c2 2 3 4 3 7v40c0 8 9 13 16 9l26-16c6-4 10-10 10-18v-381c0-8-4-15-11-19l-46-22c-3-2-5-6-5-10v-10c0-3 1-5 3-7l4-5c2-1 5-3 7-3h14c2 0 4 1 5 2l49 24c7 3 11 11 11 19v449c0 4-1 8-3 12l-13 19c23 22 37 56 37 95 0 66-42 120-94 120z m46-197l-96 148c13 18 32 28 50 28 36 0 73-39 73-99 0-33-11-60-27-77z m-165-204c0-26-21-47-47-47-26 0-47 21-47 47 0 26 21 47 47 47 26 0 47-21 47-47z m0-156c0-26-21-47-47-47-26 0-47 21-47 47 0 26 21 47 47 47 26 0 47-21 47-47z m-47-203c26 0 47 21 47 46 0 26-21 47-47 47-26 0-47-21-47-47 0-25 21-46 47-46z" horiz-adv-x="1000" />

<glyph glyph-name="deagle" unicode="&#xe84f;" d="M1544 556c-1 8-3 17-3 25 1 9 4 16-7 15-3 2-15 3-16 7-2 8-4 15-13 12-10-2-17-8-25-13-7-4-11-3-18-3-7 0-23 3-29 0-3-2-2-8-4-9-1 0-10 0-11 0-3 3 2 10-4 10-6 0-11 0-17 0-45 1-91 1-137 1-14 0-28 1-43 1-4 0-4-8-7-8-5 0-10 3-15 3-39 1-77 1-116 2-19 0-37 1-55 1-9 0-12 9-20 9-41 0-82 0-123 0-13-1-21-7-34-7-7 0-18-3-23 2-3 3-14 17-18 17-5 0-24 4-28 0-4-3 3-19-1-21-13-8-27-16-35-29-5-10-9-7-21-7-3 0-7-1-9 0-2 1-6 5-8 5-3-1-12-2-14-4-1-1 0-10 0-12 0-7 7-15 10-21 3-7 9-11 11-19 2-8-2-16-3-24-4-15-14-14-27-18-14-5-31-10-40-23-9-12-5-15 8-15 8 0 16 0 24-1 14 0 30 0 44-2 22-4 32-15 37-36 2-11 0-21 0-32 0-5-5-12-7-16-4-11-8-21-13-32-13-31-24-62-34-94-8-24-13-49-12-74 0-9 2-28 15-29 6-1 12-1 17-2 38-2 74-2 112 0 30 2 61 9 91 9-3 9-14 27-11 36 2 12 5 24 7 37 4 25 10 50 14 76 4 23 5 42 25 56 11 8 31-5 44-4 17 1 34 1 50 4 9 1 18 1 27 3 10 3 14 1 14 11 0 18 1 37 8 54 5 12 13 32 25 40 10 7 21 19 35 19 27 0 55 0 82 0 86 0 171 0 256 0 9 0 14-2 18 8 6 16 11 32 15 48 4 13 13 30 12 44z m-475-191c-7-14-24-11-37-11-11 0-29-4-39 0-10 3-12 3-15 12-2 5-2 9-2 14 0 15 0 31 0 46 0 21 21 18 35 18 14 0 28 0 42 0 23 0 19-26 19-42 0-12 2-26-3-37z" horiz-adv-x="2182" />

<glyph glyph-name="bizon" unicode="&#xe850;" d="M1902 454c2-2 3-4 0 0-2 2-1 1 0 0-7 7-32 3-41 3-12 0-24 0-35 0-10 0-19-3-18 10 1 16 2 34-2 50-1 8 2 18 3 26 1 10-2 18-5 27-5 14-39 4-49 3-9-2-3-30-4-36-3-24-24-19-42-19-26 0-51 0-76 0-50 0-101 0-151 0-7 0-25-3-29 3-4 4-7 8-11 12-4 5-18 1-23 0-7 0-16-2-21 4-9 8-3 28-19 16-6-4-11-8-18-11-3 0-6-2-9-3-2-1-2-5-5-6-11-4-29 1-34 12-3 5-12 10-16 14-5 5-13 7-21 6-10 0-13-13-21-20-4-3-10-6-13-10-1-3-10-2-13-6-3-2-6-11-11-11-11 0-22 0-33 0-22 0-44 0-65 0-44 0-88 0-132 0-20 0-44 4-64 0-17-4-29-23-40-34-9-8-18-22-30-22-16-1-25-17-39-24-6-4-13-3-21-4-10-2-20-3-31-3-23 0-46-1-70-1-29 0-59 1-88 2-12 0-23 0-35-1-5-1-16-7-19-5 8 4 3 12-4 9-7-3-12-9-19-12-18-7-44-3-63-3-47 1-95 1-143 1-17 0-37 8-46-12-4-9-3-21-2-30 0-6-3-24 2-29 5-5 7-6 7-14 1-9 0-17 0-26 0-10 0-21 0-31 0-5 3-24-1-26-12-6-6-43-6-56 0-15 0-37 21-27 10 5 95 30 100 31 6 2 367 117 401 126 26 7 59 7 83-8 22-15 12-45 4-65-8-23-13-47-26-68-16-24-28-56-9-82 19-24 51-27 80-27 10 0 23 0 30 9 5 8 6 29-6 32 9 9 10 25 13 36 4 14 11 28 15 42 5 16 11 31 16 46 2 8 5 20 12 25 9 5 14-9 18-13 8-7 31-3 41-3 16 0 32 1 48-1 13-2 29-4 40 4 6 4 13 9 21 8 6-1-1-15 1-19 2-9 20-12 26-5 4 5 3 10 5 15 4 6 2 13 5 19 5 9-4 27 4 34 6 5 16-19 16-22 2-7-3-41 12-32 0-9 18-7 23-6 5 1 6 3 6 8 0 11 3 9 13 9 43 0 85 0 127 0 86 0 173 0 259 0 17 0 34-1 51 0 12 1 25 2 36 1 13-2 6-17 20-16 13 0 27-4 39 0 11 4 9 19 8 28-1 17-1 34-1 51 0 6 5 15 2 22-1 3-4 11-8 12 0 8 8 24-6 26 16 4 34 1 50 1 7 0 31-4 36 2 6 7 2 21 2 30 1 9 5 26-2 34z m-1174-103c-30-8-374-118-403-131 1 4 5 3 7 6 1 3-3 5-2 8-12-1-11 19-10 27 1 17 2 34 2 51 0 6-7 46 6 46 28 0 56 0 84 0 109 0 217 0 326 0-4-2-6-5-10-7 1 1 2 1 0 0z m432-79c-8-17-45-10-58-9-13 0-27 0-41 0-10 0-25-5-28 7-2 7-4 18-1 25 3 8 0 22 6 28 8 7 11 3 13-5 2-11 5-22 13-31 6-6 15-12 23-14 7-2 19 6 10 13-9 6-34 39-12 41 13 0 26 0 39 0 6 0 33 3 36-1 3-5 0-20 0-26 0-7 4-21 0-28z" horiz-adv-x="2182" />

<glyph glyph-name="bayonet" unicode="&#xe851;" d="M1755 353c-91 14-181 28-271 41-6 1-12 1-17 1-18 0-37 0-55 0-59 0-119 1-178 1-59 0-117 0-176 1-17 0-34 0-51 0-3 0-7 0-10 0-5 0-10-7-16-7-13 0-27 0-40 0-10 0-11-2-11 8 0 28 0 56 0 84 0 4 0 8 0 11 0 3-8 2-10 2-2 0-11 1-11-1 0-4 0-7 0-11 0-29 0-57 0-86 0-6 3-13-3-13-14 0-28 0-43 0-5 0-10 0-15 0-4 0-5-6-10-7-5 0-8 2-11 5-1 2-1 2-3 2-7 0-13 0-20 0-7 0-13 0-20 0-6 0-8-7-14-6-4 1-7 6-10 6-6 0-13 0-19 0-7 0-14 0-21 0-1 0-3 0-4 0-1 0-2-2-2-2-2-2-5-4-8-4-7-1-8 6-14 6-8 0-15 0-22 0-6 0-11 0-16 1-2 0-2-2-3-3-1-2-6-3-8-3-2 0-5 2-8 2-1 1-2 4-3 4-5 0-11 0-16 0-7 0-15 0-22 0-6 0-6-1-10-4-5-2-9-4-14 0-4 4-10 2-15 2-12 0-21 3-32 8-6 2-16 0-22 0-27 0-53 0-80 0-8 0-15-8-17-15-2-10-1-23-1-34-1-9 0-19 0-29 0-6 0-11 0-16 0-5 4-11 6-15 1-1 5-10 6-10 3 0 5 0 8 0 13 0 27 0 41 0 15 0 30 0 45 0 6 0 14-1 20 1 5 2 11 6 16 7 6 1 12 0 18 0 6 0 7 1 12 2 3 1 7 2 9-2 2-1 2-2 4-2 13 0 27 0 40 0 7 0 5 1 10 5 8 5 10-5 16-5 14 0 27 0 40 0 6 0 8 7 15 5 1 0 5-5 6-5 2 0 4 0 6 0 13 0 26 0 38 0 1 0 4 3 5 4 4 3 11 1 14-2 3-3 8-2 13-2 7 0 15 0 22 0 3 0 12-2 13 1 5 5 11 5 17 2 5-2 5-3 10-3 15 0 29 0 44 0 4 0 8 0 12 0 1 0 1-6 1-7 0-15 0-30 0-44 0-6 0-12 0-18 0-5 0-4 5-4 1 0 14 0 14 1 0 4 0 9 0 14 1 14 1 28 1 42 0 4-1 4 3 4 4 0 8 0 12 0 18 0 35 0 52 0 57 0 113 0 170 0 106 0 211 0 317 1 28 0 56 2 84 5 41 5 81 14 119 32 26 13 47 29 68 49z m-199 4c6-3 8-8 7-14 0-2-1-12-5-12-10 0-20 0-30 0-5 0-9 10-9 13 0 3 4 14 8 14 6 0 11 0 17 0 4 0 9 2 12-1z" horiz-adv-x="2182" />

<glyph glyph-name="awp" unicode="&#xe852;" d="M2065 413l-3 8-3 7v3h-1143v17l34 1 19-4v3l135-9h4l-1 82-3 2-23 3-42-4-45-5-33-5h-101v4c3 0 4 1 5 3l2 2-7 20h0l-58-4v-11l2-4v-12l-20-1-30-1h-33-27l-28 2-38-2-34-2-14-2h-4l-1-1c-1-1-2-4-2-8v-19l2-31v-2l1-4 34-2 39 4 33 4 18 3h21v-18h-58c-2-1-4-2-4-4l-7-1-22-4-27-5h-2v-5l-3-18-6-18h-187l-18 20c-4 4-8 6-11 6h-165l-6-4-3-2-2-2-2-1h-18l-61-4c-9-5-14-9-14-13v-47l-3-64v-55-27l1-12 2-2h5l16 3 23 5 21 4 14 2h18 28l23-5 8 5c3 0 4 2 5 6l7 46h90l13-10 21-20 20-21 26-10 47-7 48-7 33 4 10 14 8 27 5 29 0 22h6l3 2c15-10 29-15 41-16l31 3 21 11 11 9c2 3 7 4 16 4v-52l158 18v50c1 1 6 3 16 6l33 9 32 9 17 5 135-1c-9-4-17-6-23-6-3 3-10 5-22 5h-2c-5 0-8-3-8-9-4-7-3-16 1-27l9-21 4-4h28l3 11-5 5-3 2 3 7h162 83 33 6l3 9v2l2 2 1 6c0 8-2 14-6 17l-8 8v49h-54v13h736l2 3c5 9 8 15 8 20l-2 9z m-1392-144h-38c-11 0-16 6-16 18 0 10 5 15 16 15h38c11 0 16-5 16-15 0-12-5-18-16-18z" horiz-adv-x="2182" />

<glyph glyph-name="aug" unicode="&#xe853;" d="M1069 386l-5-4c-3-3-4-8-4-14l1-13-3-5-14 0-9 0-3-8h-17l-4-1-5-4-33-63c-5-8-5-16-2-22 3-5 7-9 11-10h47c17 2 30 6 40 13 6 6 29 40 67 104 3 4 0 13-9 27h-58v0z m648 110l8 0 10 4h34l3-7 3-15-3-16-4-7h-31l-6 3-6 0-9-1-4-2h-19l-3 3h-30l-3 2h-14c-1-3-3-5-7-5h-28l-5 3-3 1-199-5-11-12h-5l-3 4h-5l-3-4h-42l-5-42c-1-4-4-8-9-9l5-5 11-2c7-1 11-4 10-9-3-15-3-26-2-33l1-32v-36c1-14 6-30 16-46 2-3-2-6-10-9l-26-5-31 5-17 5c0 20 1 39 4 56l9 34c4 11 5 19 4 24l-5 17-6 13c-1 3 2 8 11 12l12 6-52 3-60-3c-13-8-31-28-52-58l-44-67c-11-14-20-24-29-29l-40-7-68-3-49-1c-4 0-7 2-8 4l-2 15c1 20 4 34 8 43l13 24c7 12 12 20 14 22l14 13c7 8 10 18 10 30 0 13-5 21-17 23l-38-1-43-3c-13-1-21-3-23-7-4-5-10-10-19-13l-2-25c3-25 10-58 22-100 18-65 35-108 50-128 7-8 6-14-2-18l-50-18-52-18c-5-2-7 7-7 25l-15 34c-12 30-22 63-31 98-8 36-14 70-18 103l-2 38-21 0-31-25c-2-1-4 0-7 5-3 3-5 5-6 4-11-4-28-13-50-28-26-18-39-32-42-41l-5-17 8-8 7-12c0-6-2-11-5-14-4-3-8-5-14-5h-81c-5 0-10 2-15 7-6 5-11 12-14 22l-21 89c-11 49-17 80-17 91 0 11 0 20 2 25l9 13 22 18c11 7 20 11 26 11l434 9v5l11 8 17 11 19 4 26-1v35h-10c0-5-3-8-10-8l-9 4-1 4h-24l-4-3h-8c-4 6-6 16-6 30 0 14 2 21 5 23h7l4-3 23 1 2 5c1 2 4 4 9 4 6 0 9-3 9-9l7 1v12l13 2 15-1v-9l54 8 66 7h21l10-7h10v4h7v-3h14v-67l-14-1v-3h-7v4h-34l5-8h9c7-1 10-3 11-5l3-13h22v3h11v-3h23v3h10v-3h24v3h10v-3h24v3h9v-3h25v3h9v-3h19l49-24v-16l12-7h215l3 2 6 3h25l6-5h13l6 3 27-1 1 3c1 2 3 3 5 3h17l5-2z" horiz-adv-x="2182" />

<glyph glyph-name="flashbang" unicode="&#xe854;" d="M589-108h-271c-6 0-11 4-11 10v60c0 2 1 3 1 5l19 37c1 2 1 3 1 5v60c0 6 5 10 11 10 5 0 10 5 10 11v52c0 5-5 10-10 10-6 0-11 5-11 11v52c0 5 5 10 11 10 5 0 10 5 10 10v42c0 6-5 11-10 11-6 0-11 4-11 10v52c0 6 5 10 11 10 5 0 10 5 10 11v52c0 6-5 10-10 10-6 0-11 5-11 11v58c0 3-1 5-3 7l-15 15c-2 2-3 5-3 7v106c0 3 1 6 3 8l5 4c2 2 4 3 7 3h33c3 0 6 1 7 3l26 25c2 2 3 5 3 8v50c0 5-3 9-7 10l-17 6c-5 1-8 5-8 10v28c0 3 3 7 6 9l13 6c2 1 3 1 5 1h169c3 0 6-1 8-4l129-199c3-3 4-7 4-11v-450c0-8-5-15-12-18l-49-25c-1-1-3-1-4-1h-14c-3 0-6 1-8 3l-4 4c-2 2-3 5-3 8v10c0 4 2 7 6 9l45 23c7 3 12 11 12 18v382c0 7-4 14-11 18l-26 16c-7 4-16-1-16-9v-40c0-3-1-6-3-8l-25-25c-2-2-3-4-3-7v-58c0-6-4-11-10-11-6 0-11-4-11-10v-42c0-5 5-10 11-10 6 0 10-5 10-11v-52c0-5-4-10-10-10-6 0-11-5-11-10v-53c0-5 5-10 11-10 6 0 10-5 10-10v-52c0-6-4-11-10-11-6 0-11-5-11-10v-52c0-6 5-11 11-11 6 0 10-4 10-10v-60c0-2 1-3 1-5l19-37c1-2 1-3 1-5v-60c0-6-5-10-10-10z" horiz-adv-x="1000" />

<glyph glyph-name="fiveseven" unicode="&#xe855;" d="M1431 579c-3 7-7 23-17 25-4 1-8 0-12 0-3 0-8-21-14-21-17 0-35 0-52 0-42 0-84 0-126 0-3 0-8-1-9 0-3 3-4 4-8 4-9 0-19 0-29 0-87 0-174 0-262 0-15 0-30 0-46 0-6 0-13-1-18 2-20 13-39 13-62 15-10 1-2-11-7-15-8-6-17-11-22-21-10-17-12-40-16-60-4-14-9-27-10-42-2-34 38-44 62-55 14-7 11-16 11-29 0-7-5-16-7-22-4-10-7-19-10-28-5-15-9-30-14-45-9-30-16-60-23-91-3-20-6-40-6-60 0-13 6-23 16-33 12-12 34-6 49-6 32 2 64 4 97 5 13 1 40 4 34 25-1 3-5 6-7 8-2 2 1 8 2 10 2 7 4 15 5 22 4 14 7 29 11 44 2 8 5 16 7 24 1 7 6 12 7 19 2 17-2 45 12 55 10 8 16 9 30 8 9 0 18 0 28 0 31 1 62-6 93-1 17 3 34 11 39 28 3 10 3 20 4 30 1 6 1 13 0 20 0 8-5 17 3 22 12 6 27 17 41 20 11 2 24 0 35 0 41 0 83 0 125 0 12 0 14 16 17 27 1 5 35 2 41-1 3 5 3 10 3 16 0 4 6 5 6 10 1 9 2 19 2 29 0 21 1 41-3 62z m-299-192c0-8 0-17 0-25 0-16-25-11-35-11-23 0-46 0-69 0-10 0-33-4-42 2-6 4-4 20-4 26 0 9 0 19 0 28 0 16 20 12 31 12 37 0 73 0 109 0 4 0 7-1 9-4 3-7 1-20 1-28z" horiz-adv-x="2182" />

<glyph glyph-name="hegrenade" unicode="&#xe856;" d="M328 707c0-6 5-11 11-11h20c6 0 11-5 11-10v-141c0-3 2-5 5-5 3 0 5-2 5-5v-68c-103-39-177-138-177-255 0-149 121-271 271-271 150 0 271 122 271 271 0 87-41 164-104 213h10c19 0 36 4 52 11l62-123c0-2 1-3 1-5v-191c0-3 1-5 3-7l10-11c7-6 18-2 18 8v212c0 1 0 3-1 4l-56 135c28 25 47 62 47 103 0 74-61 135-136 135h-10c-1 0-1 1-1 1l-38 57c-2 3-5 5-9 5h-197c-3 0-6-2-8-5l-15-22c-2-3-5-5-9-5h-25c-6 0-11-4-11-10v-10z m361-243c-12-5-24-7-38-7h-53l-44 48c-9 10-6 25 5 32l22 12c2 1 3 1 5 1h53c4 0 8-2 10-6l40-80z m66 97c0-28-11-53-28-72l-73 176c56-2 101-48 101-104z" horiz-adv-x="1000" />

<glyph glyph-name="hkp2000" unicode="&#xe857;" d="M1423 572c0 3 2 13-1 16-4 3-9-2-7 6 2 13-19 11-26 10-18-1-36-1-54 0-49 0-98 0-147 0 0-5 3-18 0-23-3-3-16-1-19-1-19 0-39 0-58 0-8 0-17-4-17 6 0 3 1 9-4 9-2 0-9-2-9 3 1 8-3 5-11 5-81 1-162 1-244 1 0-4 0-9 0-13-6 0-13 0-20 0 0-10-12-15-16-25-4-8-10-17-15-25-4-7-6-18-6-26 1-9 0-9-6-13-4-3-3-16-4-21-1-6-2-14-1-20 1-5 4-3 7-5 2-1 1-3 3-4 6-4 14-5 21-8 14-7 30-19 40-32 5-7-1-11 0-19 0-6-5-11-5-15 0-4-7-16-9-20-1-3-7-12-7-14 0-3-6-16-8-19-3-5-6-13-8-18-4-11-10-22-15-33-3-5-4-12-6-17-2-6-2-12-5-18-4-14-7-30-7-44 0-4-4-5-4-9 0-3 1-7 1-10 0-10-1-19-1-29 0-20 33-4 44-10 5-3 0-10 7-13 6-2 12-1 17-4 10-5 27-9 38-10 22-2 43-4 64-9 8-2 13-5 21-5 9 0 17 1 25 1 5 0 15-5 15 4 0 3-14 7-16 10-8 10-13 37-7 49 3 7 4 18 6 25 1 7 5 13 7 20 3 13 8 23 12 36 3 10 8 20 10 31 1 9 6 20 5 28 0 7 2 17 4 24 1 6 3 7 9 7 47 1 94 0 141 0 20 0 40 0 60 0 2-1 13-2 13 2 0 7 4 16-2 20-4 2-1 30-1 35 0 7-1 14-1 21 0 14 4 18 14 27 5 5 23 2 30 2 12 0 24 0 36 0 22 0 45 0 68 0 8 0 47-6 48 4 3 21 0 44 0 65 0 21-1 43 1 65z m-544-462c2 1 4-1 5-1-2 0-4 1-5 1z m335 247c-1-7-7-4-13-3 0-12-2-10-14-10-15 0-30 0-45 0-26 0-53 1-80-1-13-1-9 9-9 19-1 9-7 16-8 26-1 9 7 16 7 25 0 8 11 12 14 18 3 4 15 9 19 8 9-3 3-30 3-36-2-13 8-17 14-27 7-9 14-13 24-18 7-3 17-3 25-2 5 0 7 10 3 12-1 1-10-1-10 1 0 0-7 3-7 4-8 4-16 9-22 16-8 10-5 24-5 36 0 5 3 13 8 14 18 3 37-1 55-1 11 1 21 1 29-8 3-4 12-7 12-10 0-14 0-29 0-44 1-6 1-13 0-19z" horiz-adv-x="2182" />

<glyph glyph-name="knife" unicode="&#xe858;" d="M1646 383c-26 7-54 13-82 16-42 4-84 9-127 9-51 0-102 0-154 0-2-12-8-13-11 0 0 0-1 0-1 0-2-13-9-12-11 0-6 5-10-10-17-10-7 0-11 15-17 10-2-13-9-12-11 0-1 0-1 0-1 0-1-2-2-10-6-10-4 0-5 8-6 10-6 5-10-12-19-10-4 1-13 18-15 7-3-13-9-5-11 3-4-2-6-17-10-6-1 4-2 9-8 6-1-4-4-9-9-10-6-1-10 3-12 8-2 2-6 5-8 1 0-1-3-9-4-9-5 0-6 8-6 10 0 0-1 0-1 0-1-5-6-16-10-6-2 8-1 6-9 6-11 0-22 0-32 0-8 0-13-7-22-5-4 1-8 2-13 4-4 2-4 2-4 7 1 8 0 17 3 25 3 11 7 21 11 32 1 3 1 18-3 19-9 2-18 4-27 6-5-26-13-55-38-69-13-8-29-14-45-13-55 2-110 4-165 6-42 1-85-4-127-5-23-1-47-5-71-7-10-1-16 8-25 11-13 5-34 5-45-4-9-7-18-15-21-26-2-5-3-11-4-16-1-4 0-12-2-14-10 0-10-21-2-23-1 0 3-1 3-1 0-3 0-7 0-11 1-7 2-13 4-20 5-22 15-42 40-45 19-3 35 16 48 28 8 6 16 3 25 1 14-4 28-4 42-5 56-4 111-4 167-4 17 0 35 0 52 2 13 0 24 4 37 5 13 1 27 1 40 0 7 0 15-1 22-2 7 0 12-5 17-9 18-16 19-43 5-63 10-2 19-5 29-8 4-1 5 8 6 12 7 21 15 42 22 63 1 2 1 3 1 5 0 7 1 6 8 6 6 1 13 8 20 6 4-1 7-3 12-3 11 0 23 0 34 0 8 0 4 1 8 8 4 8 8-5 9-8 0 0 1 0 1 0 2 13 9 13 11 0 5-4 6 3 8 5 2 4 7 6 11 5 6-1 8-6 9-10 5-4 6 3 7 6 5 11 9-3 11-6 0 3 1 10 6 10 4 0 5-8 6-10 5-4 9 10 16 10 5 0 9-3 11-8 2-4 6-4 7 1 3 12 9 5 11-3 0 0 0 0 1 0 1 13 9 13 11 0 5-4 10 10 17 10 5 0 8-3 10-8 3-4 6-4 7 1 3 12 10 5 11-3 0 0 1 0 1 0 1 5 7 17 10 6 1-4 0-6 3-6 6 0 12 0 17 0 24 0 47 0 70 0 44 0 87-1 131 2 25 2 51 2 77 5 46 7 99 18 135 50-19 17-45 26-69 33z" horiz-adv-x="2182" />

<glyph glyph-name="knife-butterfly" unicode="&#xe859;" d="M1679 403c-43-4-85-10-127 2-23 6-44 16-64 28-4 3-9 5-13 8-5 3-5 2-10 1-19-4-38-8-57-9-28-2-56-4-84-6-17-1-34 2-51 3-21 3-42 4-63 8-10 2-21 3-31 6-5 1-10 4-13 0-6-7-12-11-21-13-6-2-13-4-19-4-9 0-11 3-15 9-7 10-20 19-33 15-20-6-40-15-62-14-17 1-32 0-48 5-15 4-28 12-43 14-21 2-40 4-61 4-85 0-171-6-253-32-30-10-62-19-91-32-11-5-21-12-31-18-12-6-26-13-35-24-3-4-7-8-10-12-5-6 2-11 6-15 6-8 13-15 20-21 7-7 13-15 23-8 8 6 17 12 26 17 20 12 41 21 63 30 28 13 58 25 88 32 23 4 45 11 68 14 24 3 47 7 71 10 38 5 78 5 117 3 21-1 42-2 63-3 9-1 18-2 27-2 1 0 2-10 2-12 2-5 4-9 7-14-19 2-35 16-54 18-23 2-47 4-70 6-39 3-80 2-119-3-62-7-126-18-184-44-30-13-62-26-90-44-9-6-20-11-27-20-4-4 15-24 18-28 9-10 18-20 32-17 3 0 4 7 6 9 4 5 8 7 13 11 25 16 54 25 80 36 40 16 82 26 124 37 18 5 39 4 59 6 17 1 35 3 52 4 27 1 54 3 81 4 19 1 40-4 59-7 18-2 36-4 54-6 4 0 9 0 13-1 4 0 10 2 14 0 3-1 5-7 7-10 4-7 6-14 6-22-2-11-3-19-7-29-1-3-7-7-4-10 3-2 12 5 13 6 14 14 19 36 11 53 12-9 28 2 37 9 3 2 4 5 6 8 1 2 1 7 2 8 4 3 7 6 12 7 6 0 10-4 8-9 3 3 7 5 12 5 4 0 7 0 10-2 3-2 4-6 7-7 2-1 29 2 30 3 1 3 0 6 4 6 4-1 8-1 12-2 14-1 29-3 43-5 43-5 85-10 128-16 19-2 39-5 58-7 20-2 40-6 60-5 22 1 43 0 63 8 29 11 57 21 77 45 12 14 23 27 34 41-12-2-24-4-36-6z m-1181-67c-12-13-27 11-12 17 6 3 14-1 15-7 1-4-1-7-3-10 0 0-2-3 0 0z m45 15c-12-11-28 9-14 18 6 4 15 0 17-7 1-3-2-7-3-11 0 0-3-2 0 0z m320 77c-12-11-28 9-15 18 6 4 14 1 17-5 2-5-1-8-2-13 0 0-3-2 0 0z m44-3c-11-11-28 9-14 18 5 3 14 1 17-5 1-5-1-8-3-13 0 0-2-2 0 0z m-324-127c-11-11-28 8-15 17 6 4 13 2 17-4 3-4 0-8-2-13 0 0-2-2 0 0z m36 15c-11-10-28 6-17 16 11 10 28-6 17-16 2 2-3-2 0 0z m328 52c-12-12-28 9-14 17 11 5 23-8 14-17 2 2-3-2 0 0z m39-5c-3-1-6-3-10-3-6 2-11 9-8 15 7 16 31-1 18-12 3 2 0 0 0 0z m290 40c-3 1-6 3-9 4 42-1 83-2 124-3 27 0 54-1 82-2 8 0 16 0 23 0 7 0 7-1 13-6-78 3-155 5-233 7z" horiz-adv-x="2182" />

<glyph glyph-name="knife-falchion" unicode="&#xe85a;" d="M1656 414c19 2 39 4 59 6-1-4-5-7-8-10-4-5-9-10-13-14-12-12-24-24-39-32-27-16-54-33-83-42-44-14-91-18-136-22-19-2-38-1-57-2-9 0-18 0-27 1-9 0-19-1-27 1-24 4-48 8-72 12-19 3-38 8-57 13-20 4-43 2-63 2-3 0-7 0-10 0-1 0-3 4-4 5-2 3-7-3-10-4-11-4-22-8-33-12-13-5-28-13-41-12-6 0-10 16-12 20-11 29-26 73-64 69-15-1-29-2-37-16-3-5-6-9-9-14-2-6-3-9-10-9-10-1-22 3-32 5-8 1-16 3-25 3-20 2-42 6-62 3-10-2-20-3-31-5-8-2-20-7-29-6-9 1-20 6-29 9-12 4-29-10-36-19-7-9-10-22-16-32-2-4-3-10-8-11-6-1-13-4-18 2-9 9-17 22-31 23-18 2-31-9-43-21-18-18-34-38-51-57-7-8-13-17-21-24-4-4-9-8-14-12-4-4-7-7-10 0-6 13-4 28-4 41 0 24 9 48 19 69 23 50 66 84 112 111 36 21 78 31 118 39 19 3 37 7 56 9 27 3 54 6 81 9 5 0 14 3 20 2 3-1 7-3 10-3 6-1 12-1 18-1 22-1 44-2 65-3 3 0 4 3 6 3 5 0 9 0 14 0 5 0 11 0 17 0 17-1 34-3 51-4 24-2 48-4 72-5 7-1 15-2 22-2 2 0 3 0 4 0 6-1 7-8 10-11 0-1 1 3 1 3-1 2-1 4-1 6 13 0 27 0 41 0 7 0 9 2 9-5 0-4 0-3-4-3-3 0-7 0-11 0 3-6 6-13 13-16 3 0 7 1 11 1 13 0 27 0 41 1 20 0 39 2 59 3 7 1 16 4 23 2 12-4 25-8 37-12 29-9 60-19 91-22 40-3 81-7 121-11 29-2 57 0 87 1z" horiz-adv-x="2182" />

<glyph glyph-name="knife-flip" unicode="&#xe85b;" d="M1650 451c-39-11-79-22-119-27-25-3-51-7-76-10-39-5-78-6-117-8-81-3-162 2-241 20-3 1-11 4-13 4-3-1-6-5-8-6-2-2-5-1-7-1 0-1-1-2 0-4-2 1-4 1-6 2 0-2 0-4 0-5-2 0-3 1-5 2 0-2-1-3-1-4-5 1-5 2-8-3-1 1-3 4-4 3-3-4-3-3-6-1 0-1-1-2-2-4-3 2-5-1-6 0-5 3-4 3-8-1-1 1-2 3-3 4-5-6-5-4-12-1-9 5-19 8-29 8-10 1-19 1-28 1-26 0-51 0-77-1-36 0-71 0-107-2-25-1-51-3-76-4-20-2-40-6-60-10-18-2-37-9-55-15-24-9-48-17-69-33-19-15-37-33-51-54-6-9-13-16-14-28 0-10 15-15 22-18 3-2 3-9 4-13 1-4 7-5 11-7 7-2 18-5 25-3 6 3 13 5 19 7 8 3 13 8 20 13 19 15 40 30 64 36 13 3 27 4 40 4 28 1 57-4 83-13 9-2 16-6 25-5 4 0 10 7 13 9 15 10 34 16 52 16 11 1 22-2 33-5 6-3 14-9 21-9 5 1 8 5 12 7 9 6 20 10 30 11 19 3 32-2 44-14 7-6 11-11 16-18 6-9 7-14 18-15 8-1 11 1 17 6 7 7 14 14 20 20 2-5 3-10 4-15 1-5 3-3 8-3 12 0 25 0 38 0 4 0 9 6 12 7 6 3 12 0 19-2 3-1 6-5 10-3 8 5 13 7 21 5 2-1 12-5 12-5 4 3 9 7 14 7 3 1 11-1 13-3 1 0 5-4 6-3 3 3 7 5 10 7 6 2 12 0 18-1 1 0 3-3 5-3 2 0 7 4 9 5 8 5 12 4 21 2 2 0 3-2 5-3 3-1 5 2 7 4 8 6 17 10 26 3 6-5 8-4 15-3 11 2 22 4 33 5 44 7 89 17 131 32 48 17 95 40 136 69 28 19 55 41 81 62 10 7 20 15 30 23-22-6-44-12-65-18z m-732-81c0 2-1 10 0 10 4 0 8 0 12 0 9 0 18 0 27 0 0-4 0-6 1-9-14-1-27-1-40-1z" horiz-adv-x="2182" />

<glyph glyph-name="knife-karambit" unicode="&#xe85c;" d="M1576 388c-36 42-80 76-129 102-37 21-76 39-117 47-27 6-54 13-81 15-20 1-39 3-58 4-6 1-12 1-17 1-1 1-5 11-7 13-6 8-31 0-41-2-4 0-11-9-14-12-9-8-21-13-32-18-32-12-70-15-103-12-6 0-13 2-18 1-3 0-6-2-9-2-3 0-8 3-11 5-5 2-7 4-13 3-9-3-19-5-28-7-57-14-111-32-163-60-12-7-24-14-36-20-2-1-2-2-2-4-1-3-4-3-6-4-5-3-10-5-13-9-3-4-5-7-10-9-10-2-16-1-18-12-1-8-3-5-8-5-6 0-17-1-16-10-2-5-2-9-8-10-4-1-8 4-12 4-5 0-8-4-9-8-3-7-2-12-10-13-5 0-16 6-14-5 1-14-21-8-25-15-5-6-7-14-10-22-2-7 1-7 6-13-5-2-13-4-14-9-2-7-4-14-6-20-4-15-8-30-12-44-4-14-11-27-18-38-3-5-11-14-12-20-1-11 31-12 39-14 5-1 8-5 12-7 7-4 14-8 21-13 24-15 53-24 82-17 44 11 78 51 82 96 1 6 1 11 1 17 5-4 8 7 10 10 5 10 11 19 19 27 18 19 43 16 67 14 6 0 7 5 10 11 8 10 16 21 26 29 24 19 55 25 84 16 10-3 10-5 15 4 7 14 19 27 32 35 25 17 59 17 83-1 13-10 24-23 32-38 3-6 7-26 15-27 6-1 32 10 36 15 6 6-3 9 6 13 5 2 11 4 16 6 23 6 45 13 69 17 41 8 84 10 126 6 54-5 111-25 159-49 59-31 116-78 151-134-3 33-19 66-34 95-18 35-40 67-65 97z m-977-85c13 1 26 2 38-2 24-8 44-32 50-56 6-25 0-52-17-71-14-15-28-21-47-23-18-1-29 0-45 9-18 11-26 24-33 43-7 18-4 38 2 56 6 19 32 43 52 44z" horiz-adv-x="2182" />

<glyph glyph-name="knife-gut" unicode="&#xe85d;" d="M1652 389c-51 22-105 37-158 52-10 2-17 4-24-3-5-4 5-7 8-8 4-2 9-3 14-5 10-5 20-8 29-16 4-3 7-5 8-10 1-6 2-17-7-19-6 0-12-1-18-2-3-1-8 2-12 3-10 4-21 7-32 11-33 11-67 22-101 32-23 6-47 9-70 14-10 2-19 3-29 5-3 1-8-5-11-5-6 2-4 9-12 7-7-3-7-5-13 0-6 5-8 2-15 0-4-2-8 4-11 7-2 2-8-7-12-3-6 6-6 5-13 2-5-3-9 2-14 5-2 1-7-6-10-4-7 4-8 6-15 3-6-4-6-2-12 3-4 3-9-2-13-4-2-1-8 9-10 8-6-5-6-8-13-4-6 4-6 4-13 0-7-4-6 3-12 6-2 0-5 0-6 0-6 0-12 0-18 0-41 0-81-1-121-3-49-3-98-3-146-9-50-6-100-14-149-25-10-2-21-5-31-6-5-1-11-1-15-4-7-5-8-4-16-2 3-12-18-7-24-8-9-3-16-21-20-28-11-21-23-42-33-64-5-9-7-18-8-29 0-15 6-29 20-35 9-4 15-7 25-4 5 1 11 3 16 5 19 7 38 17 56 25 10 5 17 8 27 9 10 2 19 4 28 5 19 3 38 6 58 8 46 4 93 8 139 11 9 0 17 0 25 0 5 0 13 2 17-1 11-7 19-17 33-13 5 1 10 6 14 9 9 6 17 13 26 17 17 7 33 9 51 6 6 0 13-1 19-2 9-1 20-8 28-13 17-10 25-26 29-45 1-6 3-11 4-17 0-1 5-2 6-2 3-1 3 0 5 3 2 3 9 4 11 1 5-6 6-7 6-15 0-3 18-2 21-2 15 0 30 0 45 0 15 0 30 0 45 1 48 1 97 0 145 4 70 7 142 23 205 55 40 21 72 50 105 80-10 4-21 9-31 13z m-1136-93c6-8 9-14 5-24-2-5-14-13-19-11-11 4-15 7-17 18-4 18 20 26 31 17z" horiz-adv-x="2182" />

<glyph glyph-name="knife-m9-bayonet" unicode="&#xe85e;" d="M1731 311c12 8 24 15 36 22-34 8-67 17-102 23-52 10-105 19-158 29-27 5-54 9-82 14-16 3-30 3-46 3 5-6 6-18-4-18-6 1-7 8-10 13-2 4-6 3-11 3-7 0-13 0-19 0 6-4 10-18-1-18-7 0-9 7-12 12-4 7-3 7-11 7-6 1-13 1-19 1 3-5 11-16 2-20-8-2-13 2-15 8-3 6-3 12-9 11-7 0-14 0-21 0 5-5 9-21-3-20-7 1-9 8-12 14-4 7-4 6-12 6-7 0-14 0-21 0 5-6 11-19-2-20-8 0-9 8-12 14-3 7-3 6-11 6-7 0-14 0-20 0 4-6 9-22-5-20-6 1-8 9-10 14-4 6-5 5-13 6-6 1-13 1-20 2 3-3 6-8 6-13 2-7-6-10-12-6-6 3-9 13-12 19-1 2-20 1-22 1-8 0-16 1-24 1 3-4 8-10 8-16 0-4-11-11-13-7-3 6-5 11-8 17-2 5-6 8-10 11-1 1-5 0-7 0-6 0-13 0-20 0-14 0-28 0-43 0-7 0-7-1-8 6 0 12 0 24 0 36 0 26-1 52-1 78 0 8-22 9-22 2 0-17 0-33 0-49 0-21 0-42 0-63 0-5 0-10 0-15 0-2-5 0-5-1 0-5 0-9-1-13-1 3-1 6-4 6-6 0-12-1-18-1-14 0-27-1-41-1-4 0-4-2-6-6 0-1-5 0-6 0-2 0-1 5-3 6-2 1-9 0-11 0-8 1-15 1-23 1-5 1-10 1-15 1-2 0-2-2-3-3-2-3-1-4-5-4-4 0-4 0-6 3 0 1-1 3-2 3-5 0-11 0-16 0-12 0-24 0-36 0-1 0-3-4-3-4-2-4-2-3-6-3-3 1-2 7-7 7-13 0-27 0-40 0-6 0-6 0-9-4-6-7-6 2-11 4-2 1-8 0-11 0-7-1-15-1-23-1-6-1-11-1-16-1-4 0-4-7-8-7-6 0-7 1-12 3-4 2-9 5-13 5-13 0-26 1-39 1-19 0-39 3-58 1-11-2-21-2-32-2-2 0-10 1-11-3-2-4-1-9-1-14 0-21-6-40-4-61 1-11 4-21 4-32 0-4-1-9 2-13 3-5 10-2 15-1 3 0 5 0 8 0 0 0 3-3 4-3 4-2 10-2 14-2 10 0 19-1 29-1 23 1 47 2 70 3 5 1 8 3 11 4 6 3 7 5 14 5 3 0 3-7 7-7 5 0 11-1 17-1 8 0 15 0 22-1 3 0 10-1 12 0 3 1 5 12 9 5 4-5 4-5 10-4 14 0 27 0 41 0 5 0 2 5 7 7 6 3 5-8 8-8 10 0 20 0 30 0 7 0 21-3 25 4 1 2 7 6 9 2 2-4 2-6 6-5 12 0 24 1 36 1 4 0 8 0 12 0 3 0 0 8 5 7 3 0 4 1 5-2 0 0 1-4 2-4 3 0 7 0 10 0 13-1 26-1 39-1 4 0 8 0 13-1 3 0 3 4 4 6 1-2 0-13 2-13 4-1 4-1 4-5 0-13 0-26 0-38 0-14 0-28 0-42 1-4 1-7 1-10 0-1 9-4 11-4 1 0 11 2 11 4 0 3 0 6 0 9 0 14 0 28 0 42 0 13 0 25 0 38 0 0-1 3 0 3 4 0 8 0 12 0 25 1 51 1 77 1 9 0 17-3 23-7 4-3 3-4 7-4 37 1 74 1 111 1 112 1 224 1 336 2 13 0 26 0 39 0 65 5 127 26 182 59z m-257 44c11 0 22 0 33 0 5 0 8-4 10-9 3-9-1-17-9-22-3-2-10-1-13-1-6 0-12 0-18 0-5 0-11 6-13 10-4 10 3 17 10 22z" horiz-adv-x="2182" />

<glyph glyph-name="knife-push" unicode="&#xe85f;" d="M1012 371c-61 40-134 51-205 58-26 2-52 5-78 6-8 1-17 1-25 2-3 0-5 0-8 0-3 0-3 3-6 3-5 1-11-1-14 4-4 7-7 13-11 19-4 6-7 5-9-3-1-7-3-15-4-22-4-17-7-32-19-44-15-17-37-27-60-21-13 5-26 13-30 28-3 7-2 16-2 24-1 18 9 35 16 50 4 8 5 13 1 20-7 13-16 23-27 32-6 5-20 17-27 9-7-7-12-16-17-25-14-26-30-53-37-82-10-36-8-74-6-111 1-21 1-45 10-63 7-14 14-26 20-40 9-16 17-37 32-50 15-14 34 14 43 24 6 7 11 14 12 23 1 7-4 13-7 19-4 8-7 17-9 26-3 12-2 29 3 41 6 14 24 21 38 22 16 1 28-5 39-16 8-7 23-20 24-32 1-10 1-29 6-38 8-15 15 18 19 20 10 7 27 6 38 8 26 2 51 5 77 8 32 4 65 6 97 14 56 12 110 35 160 64-11 9-22 15-34 23 0 0-24 16 0 0z m-521 116c3 6 10 24 19 22 9-1 15-8 22-13 8-7-3-40-5-49-2-8-4-11-12-8-6 3-12 6-18 9-6 3-13 6-16 11-4 7 7 22 10 28 8 15-8-15 0 0z m36-289c-10-8-15-10-23 0-5 7-10 15-15 23-2 4-7 12-2 16 7 4 13 9 20 13 7 5 18 10 22 0 3-7 4-14 5-21 2-6 2-12 3-18 1-6-7-10-10-13 0 0-7-6 0 0z m1 114c-10-9-20-18-30-27-11-9-26-10-32 6-7 17-7 37-8 55-1 12 0 26 1 38 1 9 2 21 8 28 4 6 14 8 20 4 10-10 21-19 32-29 13-11 27-22 38-36 3-4 1-6-2-10-8-11-18-20-27-29 21 21 0 0 0 0z m1175 46c-40 24-78 44-123 54-23 5-46 11-69 13-27 3-55 7-82 8-27 2-58 0-82 10-6 2-14 35-21 19-5-10-5-24-8-36-6-24-19-42-43-52-19-8-47-1-59 17-9 15-8 40-2 55 3 8 6 15 10 23 2 5 9 16 6 21-5 10-11 19-18 27-7 7-23 24-35 22-6-2-11-12-14-17-9-14-16-29-24-44-12-25-22-49-25-76-2-19-3-38-2-57 1-33 1-69 16-99 7-14 14-28 21-41 7-14 22-51 43-41 14 7 30 25 36 39 6 15-4 26-9 39-6 15-7 30-4 46 6 30 46 40 71 24 11-8 23-20 30-33 4-7 4-16 5-24 0-4 5-35 12-22 4 6 6 11 8 17 3 8 12 8 19 9 24 3 47 4 70 7 33 4 65 8 98 12 66 9 130 37 187 70-4 3-8 7-12 10z m-543 129c4 6 10 24 19 22 9-1 15-8 22-13 8-7-2-40-4-49-2-8-4-11-13-8-6 3-12 6-18 9-6 3-13 6-16 11-4 7 7 22 10 28 8 15-8-15 0 0z m36-289c-10-8-14-10-22 0-6 7-10 15-15 23-2 4-8 12-3 16 7 4 13 9 20 13 8 5 18 10 23 0 2-7 3-14 5-21 1-6 2-12 2-18 1-6-6-10-10-13 0 0-7-6 0 0z m1 114c-10-9-20-18-30-27-10-9-25-10-32 6-7 17-6 37-7 55-1 12 0 26 1 38 0 9 1 21 7 28 4 6 14 8 20 4 11-10 22-19 33-29 13-11 27-22 37-36 4-4 2-6-2-10-8-11-17-20-27-29 21 21 0 0 0 0z" horiz-adv-x="2182" />

<glyph glyph-name="knife-t" unicode="&#xe860;" d="M1676 393c13 1 26 3 39 5-24-30-47-60-78-83-22-17-48-28-74-36-16-5-33-9-50-11-45-4-92-10-137-10-62 0-124 0-186 0-11 0-23 0-34 0-3 0-14-2-16 0-2 2-4 13-5 15-5 11-11 20-22 27-25 15-59 3-78-17-9-10-25-34-16-48 3-5 11-5 16-8 4-2 6-8 4-13-2-6-9-7-15-6-24 3-38 22-38 44 0 13 1 26-1 39-1 14-14 9-24 7-16-2-32-4-47-7-19-3-38-3-57-4-47-3-94-8-141-5-52 2-104 4-155 9-15 1-30 2-46 4-17 2-25-12-33-24-4-7-11-15-19-7-5 5-5 13-6 20-1 13-1 27-1 40-3 7-10 10-12 18-4 12 0 27 9 36 5 4 3 14 3 20 0 7 1 14 1 20 1 6 1 14 6 19 9 9 16-3 21-10 8-13 17-23 33-22 16 2 32 3 48 5 51 5 103 6 154 9 48 2 95-3 142-6 18-1 37-1 55-4 17-2 33-5 49-7 4-1 9-2 13-2 7-1 7 8 8 12 1 12 0 26 0 38 0 22 20 45 44 42 12-1 12-14 3-20-6-4-14-2-16-11-2-11 2-27 9-36 2-2 5-4 6-6 1-3 0-8 0-11 0-6 13-3 18-3 16 0 32 0 47 0 28 0 56 0 84 0 47 0 95-6 142-10 48-4 96-5 144-7 27-1 55-3 82-4 18-1 37 2 56 4 23 1 47 3 71 5z" horiz-adv-x="2182" />

<glyph glyph-name="knife-tactical" unicode="&#xe861;" d="M1577 445c11-6 4-22-7-17-5 2-7 7-9 11-4 6-5 8-11 9 3-3 6-7 5-12-1-7-9-9-15-5-3 2-7 7-9 11-3 7-4 8-11 10 3-5 5-15-1-19-4-2-11-1-15 2-3 2-5 7-7 11-4 5-4 8-10 8 3-5 7-12 1-17-5-3-10 0-14 2-4 3-6 8-8 12-3 6-4 7-11 8 3-3 7-10 5-14-2-2-1-4-4-4-4 0-8 0-12-1-5 0-7 8-9 11-3 6-5 9-11 10 2-3 6-11 3-14-3-4-7-7-12-4-5 4-6 7-9 12-4 6-5 9-12 10 2-3 3-11 2-15-2-7-12-6-17-3-4 2-5 7-8 11-1 2-2 4-3 6-2 4-3 4-7 4 2-4 2-9 0-12-3-5-9-8-14-4-4 5-6 12-10 18-3 4-10 2-15 2-8-2-17-8-25-12-16-8-32-14-50-17-45-5-92 0-136 8-15 3-31 6-47 9-6 1-11 2-17 3-2 1-6 1-8 2-5 4-9 7-14 10-4 1-9 0-13 0-8 0-14 5-21 7-9 2-16-3-22-7-3-1-7 1-10-2-3-2-6-4-9-5-3-1-8-5-10-2-1 3-4-4-6-4 0 1-1 3-1 4-2 0-3-1-4-3 0-2-2-4-3-1 0 2-4 4-4 2 0-3 0-7-4-5-3 1 2 4-3 3-2 0 0-5-2-5-5 0-1 3-3 3-6 1-2-3-4-4-4-2-8 6-8-1 0-2-5-2-5-1 0 3-4 4-4 1 0-2-1-3-5-2-3 0 2 3-4 2-2 0 1-3-3-3-3-1-2 3-6 2-2 0 0-3-2-3-3 0-6 0-9-1-5 0-10 0-15 0-10-1-20-1-31-1-21 0-41 3-62 6-48 6-96-7-140-26-27-11-52-23-79-30-9-3-18-4-27-5-12-1-19-3-25-13-6-9-11-17-18-24-7-8-14-16-18-25-6-10-1-17 6-26 5-6 10-12 15-19 13-22 27-43 40-65 6-8 15-4 22-1 9 4 14 16 20 23 8 11 17 23 30 30 9 4 19 5 28 8 6 1 12 2 17 5 6 3 11 8 16 13 5 5 12 9 19 10 5 2 11 4 16 4 12-1 22-2 33-5 4-1 9-4 13-5 6-1 10 3 15 6 9 6 18 15 29 19 20 8 49-6 60-24 5-9 11-18 17-27 10-15 17 7 20 14 7 18 17 35 37 41 20 6 37-2 53-12 7-5 13-15 19-22 2-2 3 2 3-3 0-2 0-4 0-6 0-5 1-10-1-15-5-9-10-18-17-26-4-5-11-11-11-18 1-4 6-5 10-5 10-1 21-3 31-2 10 2 14 4 17 14 5 22 10 45 15 67 2 11 21 7 29 7 26 0 51 0 77 0 52-1 104-1 156-1 4 0 8 0 11-1 9-1 18-4 26-10 4-3 8-7 11-12 2-2 3-8 4-9 2-1 11 0 14 0 5 0 10 1 16 1 8 0 16 0 24 1 26 2 53 5 79 7 35 3 71 13 106 23 11 4 22 7 34 11 5 1 12 2 17 6 17 18 34 36 51 54 14 15 29 30 43 45-46 6-92 12-138 18z m-591-210c-13-11-29 9-15 18 6 4 15 1 18-6 1-4-1-8-3-12 0 0-2-2 0 0z" horiz-adv-x="2182" />

<glyph glyph-name="m4a1" unicode="&#xe862;" d="M266 494c7 4 11 0 15-4 3-2 6-4 9-5 97-3 289 5 289 5l6-6h159l1 8h24l3 4h11v29h20l1-4h6l15 43h8v29l13 12 40-2v-7h4v3l254-19c4-1 14-6 13-16 0-12 2-53 3-72h5l5 21 26-3 10-3v19l295-4 7-16 5 3 65 85c1 1 5 4 10 4 8 0 15-5 16-16 0-12 2-70 2-98h75l3-4h43v5h114l0 5h11l1-6h6v6h6v-6h6v7h7v-8h36v6h9v-6h3v-31h-5v-4h-42v-6h-7v7h-9v-7h-8v7h-4v-7h-11v5h-115v5h-41l-5-4h-73v-5h17v-14l-6-4h-13v-3l-4-3h-13v23l-4 6h-3v-5h-9v-9h-11l-5-5h-10v3h-7l-6-10h-10v7h-7v-4h-6l-6-21-292-8-6 5v14l-6 4v-5l-11 0v-2h-19v14l-3 6h-6v-24l-20-14-1-57c2-1 6-3 6-11 0-7-5-10-9-11l0-3c1-23 3-68 10-95 3-9 8-21 13-33 9-23 18-46 14-54-6-12-102-33-116-34-15-2-44 109-50 198h-128l-13-22 7-22h-16l-38-62c0-6 1-18 5-22-4-3-73 14-107 23l99 149c1 8 1 29-11 41-13 13-34 11-43 9l-4 37-13 1v5l-19 1-3-7h-43l-19-12h-78v-8h-70v-49h-38v-16h-21v15h-12l-67-46-8 6v22h-7l-65-89c-1-3-5-9-10-9-5 0-7 6-7 9l-14 73-8 139c-1 10-2 29 10 34z m718-136h-43c0 0 0-1-1-2-1-4-3-9-3-22 0-9 7-15 11-18 2-3 4-4 2-5-3-3-19 14-23 18 0 1 0 3 1 7 0 6 0 13 0 22-15 0-23-8-26-13l0-24c0-4 11-16 17-18h72l0 1 0 1c0 2 0 6 0 8 3 4 8 13 8 21 0 10-10 20-15 24z m-63 195c0 11 7 15 11 15l199 0 5-5 0-8c-16 1-20-12-19-19h-187c0 1 0 3 0 7 0 2-3 5-6 7-1 1-2 2-3 3z m-637-155c0 3 3 6 6 6h53c4 0 6-3 6-6 0-4-2-7-6-7h-53c-3 0-6 3-6 7z m1255 108l52 1 0 27c-5 1-13 3-13 10v10c-1 1-4 5-9 5-5 0-26-30-36-45l6-8z" horiz-adv-x="2182" />

<glyph glyph-name="m4a1-silencer" unicode="&#xe863;" d="M2101 418l-374 1-1 14 7 1 1 6-120 1v4l-50-1-9-3-87 0 17-3v-14l-4-5-19 0v-6h-14v24h4v4l-53 1-2-5-2-12-1-2-4-2-5 2-3 2 1 12-2 4h-10l-1-17-3-4-4-2h-5l-5-11-301-2-6 3-8 2-15-6-2 20-14 0 0-14 0-1-3-4-5-2-2-1-3 1c-2 0-3-1-5-3l-3-5-1-3v-70l4-1 1-6-10-4v-25c1-20 3-38 7-55l18-64 11-33 3-4-123-34h-4v3l-13 43-19 73-6 49-2 21-9-2-11 2h-77l-25-3h-4c-4 0-7 0-9-2l-5-5-18-34 9-11-3-1c-3-2-7-3-11-5l-6-5-1-3-36-68 0-7 4-6 3-3-3-7-115 27 103 179 3 8 1 14-5 15-9 10-10 5-26 1v-4l-8-1 0 45-21 1-1 7h-82l-20-14-77-2v-7l-68-1 1-42h-48v-18h-23v17l-76-48v39l-97-44-1-17-1-2-4-3-3 3-1 2 1 217h87l3-3 3-11 223-3 2-1 2-4 180-1-1 7h22v6l7 1 1-6 21 1v10h21l2-2 55 87 2 3 7 5 8 4h5l272-30 8-1 14-9 8-13 3-8-2-53 6 1 1 24 17-4v6l6 1v2l1 2 5 2 302-5 3-7v-8l8-1 2-1 2-3 2-19h10l1 31 50 71 5 4c3 2 7 3 10 3 8-1 14-4 18-9l2-6-1-2 1-92h87l11-4 49 0v4h120v22h366l3-4v-77l-2-4z m-652 111l-4 4-3 10-1 9-19 1-29-45 4-4h55l5 5v20h-8z m-51-48h52l2 8h-54v-8h0z m-409 80l-3 1h-229-5l-9-4-8-7-3-4-13-32 5-5 261 2 3 0 6 4c7 4 10 11 10 21 0 8-3 15-9 19l-6 5z m-849-152l-3 1h-61l-3-1-2-5 3-4 2-2h62l2 3 3 4-3 4z m-69 96v-9h77l-1 6-2 3-3 1-71-1z m750-156l-6 3h-31l-8-8c-4-7-7-13-7-19-1-6 1-12 6-18l7-7-3-2-11 8c-7 7-11 14-11 21-1 5 0 11 3 17l3 8-14-5c-9-7-14-16-13-29 1-7 4-13 11-19l10-8h73v10l7 10c2 8 2 16-2 25l-14 13z" horiz-adv-x="2182" />

<glyph glyph-name="m249" unicode="&#xe864;" d="M1231 563c9 0 20 2 27-5 2-3 4-3 7-3 4 0 2-2 4-2 4-1 8 0 12 0 9-1 17-6 24-10 8-4 15-3 23-5 5-2 19-6 22-9 4-4 6-19 7-25 1-9 0-17-2-26-3-8-11-31-22-32 29 0 59 0 88 0 20 0 41 0 61 0 6 0 22 3 28 0 4-3 2-10 9-11 8-2 16-3 24-5 14-3 27-7 41-9 6-2 13-3 20-4 13-2 14 6 15 17 2 14 13 23 14 37 1 7 1 14 2 22 1 4 17 1 21 1 2 0 1-37 1-41 0-9 0-18 0-26 0-2-2-11-1-12 3-4 17-3 20-3 6-1 11-1 16-1 62 1 124 1 185 2 27 0 54-2 81 2 6 0 13 0 20 0 9 0 8-11 9-18 2-8 5-13-1-19-4-4-13-4-19-4-56 3-112 4-168 4-39 0-77 0-116 0-8 0-16 1-23-1-6-1-5-10 1-10 6 0 20 3 26 0 15-7 10-28 10-41 0-3-13-2-16 0-7 3-11 3-19 3-32 0-64-3-95-4-20-1-40-3-60-4-3 0-15 1-17-1-4-6-9-15-16-19-11-5-21 1-29 8-7 7-11 8-20 12 1-10 2-20 2-30 0-11 1-23-14-20-4 1-8 4-12 4-7 0-13 0-19 0-11 1-22 0-33 0-43 0-86 0-129 0 11-38 10-73 10-112 0-6 3-87-6-86-29 5-62 1-92 1-17 0-34 0-51 0-11 0-24-1-24 13 0 67-1 133-1 199 0 5 2 21-2 24-6 4-15-2-15-10 0-5 5-15-1-18-6-2-2-11-1-17 0-6 0-17-3-22-5-9-26-17-36-17-21 0-40 1-60 10-5-16-12-33-18-49-4-9-8-18-11-27-1-3-4-10-4-13 0-5 6-8 5-14-2-9-11-20-20-20-13-1-28 5-40 9-8 2-16 6-24 9-8 3-19 10-28 9 16 22 29 48 43 72 5 7 9 15 14 23 2 4 8 11 7 16 0 10 0 20-10 25-3 2-12 8-16 8-58 4-116 9-174 9-28 0-57 2-86-1-18-2-36-4-55-6-20-2-51-7-50-33 1-8 3-16 6-23 3-5 11-12 10-18-1-4-6-4-9-4-11-1-23-2-35-2-41-2-83-4-124-6-18-1-35-1-52-2-7 0-18-3-25 1-16 7-15 27-15 41 0 17 0 34 0 50 0 39 0 78 0 117 0 14-1 14 11 21 3 3 16 0 20 0 5 0 11 0 16-1 35-5 70-9 105-14 12-2 27-2 37-9 13-10 21-26 38-30 8-2 17-1 25 0 59 2 116 19 170 42 23 10 45 19 69 23 23 4 46 4 69 8 16 2 30 3 46 4 1 0 11 33 16 37 13 12 33 6 48 3 14-3 27-7 41-12 10-3 7-28 11-28 16 0 33 0 50 0 17 0 34 0 52 0 5 0 1 8 3 8 7 0 15 0 23 0 9 0 18 0 28 0 1 0 4 1 5 0 2-2-3-8 2-8 14-1 28-1 43-1 27-1 55 0 83 2 14 1 28 2 42 3 16 2 32 0 43 11 3 3 14 19 11 21-7 4-13 9-21 12-16 7-33 9-49 12-8 2-15 3-23 5-4 2-6 2-10 6-4 4-3 4-10 4-6 0-19-4-25 0-5 7-9 15-6 24 2 7 11 17 10 23 12-1 23-6 31-14z m-217-281c-9 0-18 0-27 0-12-1-27 3-23-15 3-18 22-16 35-16 19 0 19 18 15 31z" horiz-adv-x="2182" />

<glyph glyph-name="mac10" unicode="&#xe865;" d="M1441 514c0-14 2-21-8-32-5-6-27-2-35-2-13 0-10-8-10-19 0-9 5-23-5-23-29 0-58 0-87 0-11 0-6-6-5-15 1-7-8-6-7-12 1-6 2-11 3-17-14 0-28 1-42 1-3 0-17-30-21-34-7-9-13-16-25-19-7-2-16-1-23-1-23-1-41 0-60 13 0-38 0-76 0-114 0-6 0-13 0-20 0-8-9-2-12-6-2-2 0-11 0-13 0-11 0-22 0-33 0-22 0-43 0-65 0-2 1-7-1-7-9 0-18 0-26 0-20 0-41 0-61 0-3 0-1 34-1 38 0 22 0 45 0 67 0 15-6 13-20 13-11 0-21 0-32 0-8 0-10 7-15 14-2 2 2 12 3 15 2 12 5 24 8 36 7 30 13 61 21 92 2 10 4 13 0 21-6 10-11 22-19 31-10 10-39 4-51 3-7-1-11-5-15-10-7-7-13 6-16 8-4 2-15 0-19 0-12 0-25 0-37 0-2 0-17 0-17 0 0-10 0-19 0-28 0-9 0-18 0-28 0-1-15-5-19-5-9 0-14 1-23 3-8 3-17 0-24 3-6 2-12 9-14 15-7 12 2 25 3 37 3 33 2 66 4 99 1 18 2 37 3 55 1 12 19 19 19 30 66-4 131-9 197-19 6-1 12-2 19-2 0 0 4-4 4-5 2-6 0-8-4-11-14-8-31-6-46-6-16 0-31 1-46 2-11 1-23 2-34 3-2 0-14 0-15 2 0 0-1 0-1 1-1-11 7-8 15-8 8-1 17-1 26-2 17-2 33-3 50-3 30 0 60 0 90 0 35 0 69 0 104 0 21 0 42 0 62 0 4 0 3 11 4 15 1 9-1 12 8 13 13 2 29 3 42 0 6-2 9-9 11-14 4-7 3-7 11-7 19 0 39 0 59 0 3 0 5 0 8 0 4 0 1 1 3 4 2 4 0 11 4 12 9 4 40 21 49 13 14-11 11-21 11-38 0-9-5-33 10-33 9 0 19 0 28 0 11 0 11 1 17-8z m-314-145c19-7 38-4 58-4 16 0 35 4 31 25-5 24-36 17-54 17-9 0-22 2-31-2-11-6-15-28-4-36z m-353 191c-7 0-10 1-10-7 0-7 0-13 0-19 1-13 2-26 3-38 5 21 10 41 17 62-3 1-7 2-10 2z" horiz-adv-x="2182" />

<glyph glyph-name="mag7" unicode="&#xe866;" d="M722 302c0 2 16 32 17 34 4 9 11 18 16 27-5 5-20 5-27 6-9 1-18 3-28 4-17 3-37 6-53 12-14 5-31 6-44 15-7 4-14 7-21 10-7 4-13 11-20 15-5 4-12 13-19 11 1 6-9 11-12 15-3 4-6 9-7 14-1 4-1 11 0 15 1 5 1 11 2 16 1 6 6 9 9 14 3 5 2 11 4 16 2 4 1 10 2 15 2 5 5 13 12 13v1c62 0 125 0 188 0 22 0 44-1 67 0 5 0 13 2 18 2 2 0 4-2 6-2 5 0 9 0 13 0 144 0 288 0 432 0 41 0 82 0 123 0 10 0 19 0 29 0 1 0 3 0 5 0 3 0 6-1 7-4 2-4 4-3 8-3 0-9-1-17 0-26h-3v-1c2 0 4 0 6-1 2 2 9 2 13 0v1c7-1 5-11 5-16 29 0 58 0 87 0 20 0 39 0 58 0 5 0 21 3 25-2 6-5 6-7 6-15 0-5 0-11 0-16-1-5-1-13-8-13-17 0-34 0-51 0-9 0-19 0-29 0 0-2 0-5 0-7h0c-3-9-31-5-38-5-12 0-25 0-37 0-5 0-9 1-12-2 4-6-6-8-10-7v-2h-23c0-5 0-9 0-13l-6-1c-3-7-6-14-10-21-4-6-13-11-16-17-6-11-33-8-43-8-11 0-24 3-31 12-27-1-55-2-81-2-4 0-8-4-11-6-1-1-2-1-3-3-1-1-5-1-7-3-4-5-10-10-13-16-7-11-9-24-23-27-11-3-39-1-39 15 0 5-3 9-3 14 0 5 0 10-1 15-20-1-40-1-60-1-11 0-22 0-33 0-5 0-9-2-13-1 0-6-6-7-8-11-2-5-6-8-10-12-4-4-7-8-11-13-2-2-5-3-7-5 0 0-5-5-5-5-15-7-39-3-56-3-13 0-26 0-38 0-4 0-13 0-9 6h-3c-1-3-4-7-4-10 0-3-2-8-4-11-1-4-69-141-70-143-4-8-3-10-6-11-4 0 0-5-3-8-3-3-9-2-14-2-30-1-60-1-90-1-12 0-33-4-42 4-3 3-9 8-9 12 0 6 23 57 27 65l39 77z m284 82v0l-61 0c0-6-1-13 2-17 6-10 12-10 23-10 8 0 22-1 26 7 1 4 7 16 11 16 0 2-1 3-1 4z m-82-11v1c-1-2-2-3-3-5h-1c0 0 0-1 0-2h-1c0 0 0-1-1-2-2-1-4-5-4-8h15c0 5-6 9-5 16z" horiz-adv-x="2182" />

<glyph glyph-name="incgrenade" unicode="&#xe867;" d="M464-124c-98 0-177 28-177 62v667c0 18 14 32 31 32h62c6 0 11 4 11 10v26c0 3 2 5 5 5 3 0 5 3 5 5v47c0 6-5 11-10 11h-21c-6 0-11 4-11 10v18c0 2 1 4 2 6l16 24c2 2 5 4 9 4h165c4 0 7 2 9 6l5 9c2 4 5 6 9 6h18c4 0 8-3 10-6l111-273c0-2 1-3 1-4v-550c0-3-3-6-6-6h-27c-3 0-4 2-5 3-3 5-3 11 0 15l0 1c1 1 2 2 4 2 4 0 8 4 8 8v503c0 2-4 8-6 10l-22 41c-6 9-19 4-19-6v-624c0-34-80-62-177-62z m-163 193c107-24 218-24 325 0v47c-99-23-225-23-324 0l-1-47z m177 484c-212-183-116-347-41-406-50 83-14 146 10 167-3-16-2-53 31-78 34-25 56-63 63-79 109 94 5 219-31 261-29 33-33 104-32 135z" horiz-adv-x="1000" />

<glyph glyph-name="molotov" unicode="&#xe868;" d="M429 444c-73 6-173 124-83 234 0-14 3-45 15-57 2 24 25 91 105 161-4-24-8-76 5-88 15-16 78 52 57 125 44-12 121-77 83-240 25 2 77-10 79-31-25-7-77-28-94-57-14-25-31-39-42-45v-43c0-7-4-13-10-16-7-4-11-10-11-17v-24c0-3 3-6 7-6 2 0 4-2 6-4l58-106c1-3 2-7 2-10v-318c0-11-9-21-21-21h-187c-12 0-21 10-21 21v318c0 3 1 7 3 10l58 106c1 2 3 4 5 4 4 0 7 3 7 6v24c0 7-4 13-11 17-6 3-10 9-10 16v41z m98 37h-68c-36 34-37 66-21 94 18 33 59 59 89 73-17-31-2-57 12-83 3-6 6-11 9-16 12-25-9-56-21-68z" horiz-adv-x="1000" />

<glyph glyph-name="mp7" unicode="&#xe869;" d="M1512 529c0 9-15 6-20 6-12 0-56-6-63 3-3 1-5 3-7 4 2 6-3 13-3 20 0 5 3 11-7 11 4 10-4 23-11 27-11 6-25-1-35 6-9 8-11 16-23 17-10 0-22-1-32-1-120 0-240 0-360 0-40 0-81 0-122 0-15 0-24-7-30-21-4 3-5-1-9 0-5 0-5 0-10 3-10 5-15 1-20-6 0 0-3-5-3-6-2-2-4-4-5-6-3-5-3-11 1-16-11 0-22 0-33 0-8 0-6 4-11 5-5 0-18-4-21-9-3-7-5-8-6-14 0-5 0-10 0-15 0-49 0-98 0-147 0-20-4-33 22-33 20 0 27 10 35 26 4 9 7 18 11 27 3 6 11 21 11 27 0 7 4 31 9 35-1-5 4-15 8-17 6-3 15-1 21-1 15 0 30 0 45 0 7 0 26 3 33 0 3-1 3-7 6-8 4-2 11 1 15 2 14 0 27 0 40 1 5 0 9-3 13-1 3 2 2 9 6 5 2-2 0-7 2-8 5-3-4-30-4-34 0-11-8-23-9-34-1-12-2-24-2-36 0-13 2-26 2-37 0-6 0-17 6-18 10-3 10-3 10-13 0-27 4-49 8-74 1-5 4-13 4-18 0-7 4-12 4-18 0-10 5-28 10-37 5-10 13-9 25-9 7 0 15-3 24-3 9 0 15 1 23 2 7 2 39-3 33 8-2 5 2 13-1 18-1 3-3 2-4 4-1 2-1 3-2 5-1 2-2 5-4 8-2 5-4 11-5 17-3 13-4 24-6 36-3 20-13 51-7 71 6 23-3 48-3 73 0 13 1 24 1 37 0 5-2 17 6 17 19 0 38 1 58 2 21 1 45-2 45 25 0 8 13 12 13 17 0 6 3 12 0 18 3 1 6 1 9 1 30 0 59 0 89 0 14 0 19 3 19-10 0-12 0-25 0-37 0-25-1-49-2-74-2-26-7-61 25-71 11-4 44-20 49-5 3 9 0 26 0 37 0 49 0 98 0 147 0 8 5 11 11 15 9 5 16 18 23 3 2-4 12-15 15-17 7-5 11 3 11 11 0 1-2 9-2 9 2 4 13 6 15 6 13 0 27 0 40 0 7 0 21-3 26 5 4 7 0 29 0 37z m-820-26c0 7 0 15 0 22-1 3 0 6 0 9 2-8 2-23 0-31z m382-59c-1 4-2 7-1 11 2-3 3-6 5-9 3-3 5-7 9-9-12 0-10-1-13 7z m77 11c-2-3-3-9-6-12-4-7-12-6-20-6-10 0-8 4-13 9-3 3-16 22-15 24 1 7 30 3 37 3 6 0 24 5 21-6 1-5-2-7-4-12z" horiz-adv-x="2182" />

<glyph glyph-name="mp9" unicode="&#xe86a;" d="M1003 582c2 2 3 3 3 6 19 3 23-20 41-20 37 0 74 0 112 0 115 0 230 0 345 0 9 0 48 6 54-5 7-14 9-32 16-47 7-16 33-6 46-6 16 0 36-2 51-3 9-1 9-3 9-12 0-13-1-40 0-53 0-8 3-11-12-10-20 1-39 0-59 0 9-20 18-40 27-60 1-3 0-8 0-10 1-14 3-15-11-16-14 0-15-2-21 9-7 12-14 25-20 37-3 5-33 5-33-5 0-13-2-28-2-42 0-14 4-28 4-42 0-13 8-29 12-41 4-13 8-26 11-39 4-18 22-72 1-83-10-6-27-8-39-9-8-1-17-1-25-2-5-1-18-6-23-4-12 5-12 7-16 18-3 8-7 14-10 22-1 3-1 6-1 9 0 5-3 6-5 10-2 6-2 15-3 21-1 14-3 27-3 41 0 5-2 13-2 19 0 8-1 13-2 20-1 15-2 28-2 43 0 16-4 35-22 38-23 4-30-24-47-33-8-4-13-11-21-15-11-5-19-11-32-12-28-3-53-7-74 13-26-49-28-104-28-162 0-7 0-15 0-22 0-3-1-8-5-8-3 0 0-8-1-11-4-8-40-3-50-3-24 0-47 0-70 0 0 0 1 7 0 8 0 1 1 5 0 6-1 2-10 0-14 0-11 0-20-3-24 10-3 13-2 29-2 42 0 27 0 56 8 81 1 3 4 7 6 11 1 3 1 6 2 10 3 7 8 13 11 20 5 14 13 27 14 42 0 9-1 14-5 21-2 4-9 19-14 19-42 0-85 0-127-1-19 0-49 5-64-3-8-4-18 7-18 14 0 13 0 26 0 39 0 4 0 7 0 10 0 7-13 0-17 5-2 1-5 0-7 2 0 0-2 5-2 5-2 1-7 0-9 0-51 0-102 0-153 0-50 0-99 0-148 0-13 0-7-15-7-24 0-18-4-37-6-55-2-26-5-52-7-79-1-5-4-11-5-16-4-13-12-10-25-11 0 45 0 89 0 134 0 26 0 51 0 77 0 5 0 10 0 15 0 4 9-1 9-1 26-4 56-4 84-4 60 0 120 0 179 0 35 0 70-1 105 0 11 0 22 1 33 1 5 0 5 1 5 6 0 7 0 14 0 21 0 11-5 33 0 43 7 17 99 1 99 8 0 8 3 7 6 13z m293-242c-11 10-18 24-20 40-4-4-22-21-17-26 12-11 27-19 43-21-2 3-4 5-6 7z m75 33c-13 13-33 25-53 22-15-3-19 0-20-17 0-12 3-24 10-34 4-7 5-11 13-10 7 2 15 4 21 8 13 8 20 19 29 31z m-300-228c-1 4 0-1 0 0v0z" horiz-adv-x="2182" />

<glyph glyph-name="negev" unicode="&#xe86b;" d="M1866 528c12-2 39-40 18-41 6-17-59-12-76-12-70 0-140-1-210-1-57 0-113-1-169-1-3 0-4-20-4-24 0-11 10-9 13-16 3-8 0-27 0-37 0-12 6-40-13-33 0-15 3-34-1-49 16-2 8-75 8-92 0-31 0-62 0-93 0-8 1-45 0-45-18 0-12-28-12-43 0-2 10-8-1-8-5 0-26-4-26 4 0 3 6 3 6 9 0 4 0 8 0 12 0 7-1 17-1 22 0 4-14 10-14 20 0 63 0 126 0 189 0 7-1 15 1 21 2 5 6 8 6 17 0 10 6 43-9 35-3 5-3 38 0 40-4 2-9 5-9 9 0 3-7 13-7 8 0-7-2-6-5-10-3-3-9 0-9-5 0-2-1-5-2-7-11-6-24-2-37-3-13-1-22-5-28 6-1 2 0 9 0 11 0 2-16 1-18 1-37 0-74 0-111 0-6 0-76 1-76-1 0-3-1-8 0-11 2-6 5-2 7-8 4-9 1-17 9-26 3-4 8-1 8-8 0-4 0-8 0-12 0-16 0-32 0-47 0-32 0-64 0-96 0-16 0-32 0-47 0-9-2-18-2-26 0-16-19-11-31-11-39 0-78 0-118 0-10 0-30-3-38 5-4 4-10-1-10 7 0 4 0 8 0 12 0 8 0 15 0 23 0 63 3 128-2 190-1 20 6 23 14 37-19-1-42 6-37-19 2-9 13-14 3-23-4-4-13-4-19-5-13-2-9 1-14-6-4-7-6-14-8-22-3-8-5-15-8-23-1-6-2-20-6-24-5-5 1-18-4-23-3-3 1-9-5-9-3 0-10-4-13-4-22-2-71-4-71 25-1 15 10 32 15 45 4 13 12 32 12 45 0 11 5 13-2 23-6 9-15 13-24 17-9 5-16 11-20 21-2 3-2 7-4 10-4 4-2 2-10 4-4 2-7 4-7 9 0 2-32 1-36 1-16 0-63-9-75 4-9 9 3 19-14 19-14 0-28-2-42 2-3 0-6-5-11-5-7 0-2-3-7-7-42-36-89-73-136-102-2-1-5 0-8-3-2-1-3-9-6-13-3-2-12-8-15-9-12-6-25-3-35 5-10 7-18 33-18 44 0 13-5 36-10 47-7 13-5 33-7 47-3 16-7 65 21 57 5 5 27 2 36 2 38 0 77 0 116 0 50 0 96 5 147 5 13 0 26 0 39 0-1 0 6 10 5 9 4 6 2 6 8 10 5 3 13 1 17 4 6 4-2 14-2 20-1 12 5 11 13 16 6 4 11 15 18 15 8 0 15 0 19-8 2-5 12-3 18-6 4-3 3-7 10-9 13-3 31 0 44 0 9 0 18 5 21-7 10 4 11-18 12-25 23 0 55-4 74 3 7 3 22 21 26 7 7 5 18 8 24 3 5 10 42 6 52 4 3 0 5-5 7-5 3-1 8 1 12 1 7 0 16 1 24 1 12 0 24 0 37 0 4 0 8-5 11-5 4 0 13 11 14-2 8 2 13-1 21 0 8 0 16 0 24 0 2 0 3 4 5 5 7 2 15 3 21 6 6 3 13 6 20 7 4 1 22 8 10 12-15 5-29 10-43 15-8 3-31 6-34 16-2 8-24 3-30 9-7 7-18 9-22 18-3 10 2 15 7 22 10 13 17-7 22-7 5 0 11-3 15-5 9 14 74-13 86-16 11-3 35-8 40-18 0-1 8 3 12 0 2-2 0-9 0-12 0-9 0-17 0-25 0-8 0-16 0-24 0-13-14-13-25-13-12 0-16-1-25-5-5-1-4-8 1-8 36 0 73 0 109 0 6 0 21-2 25 1 4 3-2 9 5 12 11 3 8 10 8 20 1 5-2 3 2 10 1 1 8 8 10 9 5 4 24 11 31 7 5-3 6-3 6-10 0-9 3-4 6-10 5-7 5-12 5-22 0-30 42-20 64-20 131 0 262 0 392 0z m-1380-53c2 1 4 2 6 3-52 0-104 0-156 0 2-9 2-23 6-30 4-7 10-6 13-14 4-13 9-26 13-38 17 12 29 16 42 26 8 6 20 12 28 17 17 12 33 24 48 36z" horiz-adv-x="2182" />

<glyph glyph-name="finance" unicode="&#xe86c;" d="M666 51c-139 0-260 80-320 196l320 0 0 111-355 0c-4 17-6 35-6 55 0 19 2 37 6 54l355 0 0 112-320 0c60 115 181 195 320 195 90 0 172-33 236-88l98 100c-88 78-205 127-334 127-217 0-402-139-471-334l-195 0 0-112 170 0c-2-17-4-35-4-54 0-20 2-38 4-55l-170 0 0-111 195 0c69-196 254-335 471-335 129 0 246 49 334 128l-100 99c-62-55-144-88-234-88z" horiz-adv-x="1000" />

<glyph glyph-name="facebook" unicode="&#xe86d;" d="M570-88l0 456 139 0 20 177-159 0 0 116c0 50 12 86 78 86l84 0 0 158c-41 6-82 8-123 8-121 0-205-82-205-235l0-131-136 0 0-179 136 0 0-456z" horiz-adv-x="1000" />

<glyph glyph-name="competitions" unicode="&#xe86e;" d="M475 913l-270-442 541 0z m0-190l95-154-189 0z m271-351c-123 0-221-98-221-221 0-121 98-221 221-221 121 0 221 100 221 221 0 123-100 221-221 221z m0-344c-68 0-123 54-123 123 0 68 55 123 123 123 67 0 123-55 123-123 0-69-56-123-123-123z m-713-73l393 0 0 393-393 0z m98 293l197 0 0-195-197 0z" horiz-adv-x="1000" />

<glyph glyph-name="arrow-top" unicode="&#xe86f;" d="M477 602l-409-234 0 136 409 237 406-235 0-138z" horiz-adv-x="1000" />

<glyph glyph-name="arrow-bottom" unicode="&#xe870;" d="M492 266l406 236 2-136-408-237-406 235 0 136z" horiz-adv-x="1000" />

<glyph glyph-name="nova" unicode="&#xe871;" d="M1998 443c-5 8 9 18-7 21-9 1-19 0-29 0-6 0-4 9-6 12-6 7-21 4-30 4-13-1-17-4-17-15-9 1-18 2-27 2 0-1 0-2 1-3-154 0-308 0-462 0-37 0-75 0-112 0-19 0-38 0-57 0-10 1-20 1-30 1-7 0-14-2-20-1-5 1-7 4-12 5-4 0-14-2-17 0-10 7-26 3-39 3-18-1-36-1-55-1-9 0-19 1-29 1-1 0-11-1-9 0-1 0-11 2-7 0-21 3-42 3-64 2-6 0-58-2-57 1 2 6-9 4-12 4-6 1-1 8-10 7-7 0-29 3-25-6-2 0-5 0-7 0 0-10-16-15-26-20-14-6-28-12-44-15-7-2-14-7-22-9-8-3-17-6-25-9-19-6-38-12-56-19-9-3-17-4-26-6-8-2-15-5-24-5-5-1-17 0-20 5-2 6-21 1-27 0-40-3-81-5-121-6-18-1-36-4-54-5-20-1-41-3-61-3-17-1-33-2-50-1-4 0-10 0-15-2-1 0-3-2-3-3-6-2-11-2-16-2-9 1-17 2-26 1-7 0-11 3-17 3-20 0-33-2-42-17-4-7 0-13 1-20 1-7 1-15 2-22 2-17 2-34 4-52 1-16 3-33 5-49 1-13 0-32 7-44 8-12 29-13 43-11 5 1 16 1 18 6 2 6 16 7 23 9 17 5 32 12 48 19 8 3 17 6 25 8 9 3 18 8 27 11 14 4 27 10 40 17 5 3 10 6 16 8 7 3 12-1 18 0 7 1 15 5 21 8 10 3 19 7 28 10 20 7 40 15 60 22 15 4 27-8 33-19 3-4 1-8 8-9 10-1 20 5 29 9 7 3 15 3 22 5 8 2 15 5 22 9 12 6 5 22 10 32 1 4 7 7 9 12 2 4 3 5 7 8 11 7 23 11 37 14 14 3 30 5 45 5 18 1 21-13 30-24 18-20 62-20 87-8 13 6 23 16 36 22 5 3 9 8 15 11 1 0 13 6 12 6 13-3 28-2 41-2 22 0 44 1 67 1 19 0 39 1 59 1 7 0 14 2 19-3 8-6 14-13 24-17 13-7 28-8 43-9 22-1 43-1 64 1 84 9 167 21 251 20 48-1 97-2 145 2 11 0 22 2 32 3 11 2 24 3 34 7 10 9 28 0 28 16 0 6 1 17-3 23-3 5 1 11 8 13 6 1 13 1 20 1 12 0 24 2 36 2 51-1 102-1 153-1-1 2-1 3-2 5 3 0 9-1 9 3 0 7 0 13-3 19 0-1 1-1 1-2 0 0-5 9 0 0z m-1153-89c-3 8 29 5 37 5 4 0 13 1 15-3 2-4 2-12 0-16-4-9-33-9-42-6-7 2-15 17-10 20 0 0-2 6 0 0z" horiz-adv-x="2182" />

<glyph glyph-name="p90" unicode="&#xe872;" d="M1285 265c-8-11-5-28-4-41 0-1-1-10 0-10 7 0 13 0 19 0 2 0 11 1 11 0 0-4-2-14 1-15 16-5 25-20 44-12 23 8 32 29 20 51-7 14-22 19-31 32-6 8-8 11-19 9-15-2-31-2-41-14z m-175-23c0 12-5 37-19 37-19 0-38 0-57 0-9 0-18 0-28 0-3 0-9 1-12 0-5-3-11-12-16-16-5-5-12-9-16-15-5-7-1-19-1-26 0-17 5-31 19-40 21-16 36-7 58 1 23 9 72 29 72 59z m358 187c5 7-10 9-13 9-11 0-22 0-33 0-23 0-46 0-69 0-34 0-68 3-102 5 0-3-1-23 0-23 6 0 12 0 17 0 26 0 52 0 78 0 29 0 57 0 86 0 9 0 18 0 27 0 8 0 6 1 9 9z m27 12c-9 0-12 2-12-8 0-4-2-6 3-7 4-1 10-4 8-9-2-6-7-12-7-17 1-10 2-20 3-30 0-5 9-5 9-1 0 9 0 18 0 27 0 9 5 39-4 45z m194-79c12-10 18-52-1-57-12-2-26 0-38 0-18 0-37 0-55 0-5 0-9 0-14 0-2 0-2 4-4 4-2 0-6-4-7-5 6-7 14-15 17-25 2-7-1-17-2-25-2-16-4-32-5-49-1-7 0-17-2-24-3-8-9-7-16-7-16 0-41-8-45 11-3 16-2 32-5 48-3 10-39 6-46 5-6 0-13-14-14-18-1-11-1-21-2-32-3-29-17-60-41-79-22-17-51-26-79-28-11 0-23-1-34-2-6 0-13-2-19 0-9 2-17 1-16 11 0 7 3 14 5 21 2 11 5 22 7 32 2 6 5 13 3 18-6 15-33 10-47 10-10 0-13-1-18-9-4-6-13-12-19-16-41-32-91-66-145-68-31-1-65 0-97 3-10 1-21 2-31 3-10 1-6 8-7 17 0 7 1 8-4 10-9 3-18 6-26 10-22 7-43 15-64 23-3 1-7 4-11 4-2 0-23 3-24 1-4-8-11-20-22-20-13 0-25 0-38 0-82 0-163 0-245 0-28 0-20 54-20 72 0 32 0 65-1 97 0 36-1 72-2 108-1 15 5 16 16 16 13 0 26 0 40 0 90 0 181 0 271 0 20 0 42-3 62 0 25 5 48 7 74 7 78 0 156 0 235 0 4 0 0 28 2 33 7 17 14 33 20 50 4 9 7 16 17 20 10 4 7 18 10 28 3 12 21 27 29 10 3-8 3-17 3-24 0-4 0-9 0-12-1-1-4-3-4-6 0-3-2-16 1-16 13 0 27 0 40 0 46 0 92 0 138 0 11 0 22 0 34 0 5 0 14 8 18 11 9 5 16 4 16 16 0 9-3 2-4 6-1 3 0 9 0 12 0 7 4 15 12 16 6 0 19 4 20-4 1-9 1-17 1-26 0-9 0-15 3-23 2-10 4-12 14-12 7 0 10 1 15-4 8-8 15-16 23-25 11-11 26-22 26-40 0-21 0-42 0-63 0-3-2-14 2-14 10 0 21 0 32 0 23 0 46 0 68 0z" horiz-adv-x="2182" />

<glyph glyph-name="revolver" unicode="&#xe873;" d="M1579 581c0-18 18-27 19-46 1-8-1-15 1-23 1-11-2-19-6-29-2-6 1-17 1-24 0-3-2-20-7-20-8 0-17 0-25 0-99 0-199 0-298 0-39 0-77 0-116 0-13 0-11 1-17-13-6-14-11-27-12-42-1-6 0-24-3-29-7-10-35-3-48-7-11-4-53-10-53-22 0-23 1-50-18-66-16-13-41-15-60-15-16 0-37-3-51 8-15 13-26 23-32 42-1 3-7 28-12 19-2-4 4-24 4-28 2-11-3-11-11-7-8 3-17 6-25 5-10-2-19-5-29-5-7-1-2-16-2-22-2-10-3-20-5-29-1-7-10-16-14-22-7-10-10-13-8-25 1-10 2-20 2-31 0-10-6-10-14-17-9-9-10-11-14-23-1-18-33-14-47-14-21 1-41 2-62 3-17 2-35-2-46 14-14 19-9 40-6 62 6 53 28 104 54 151 8 15 17 29 24 45 10 17 23 36 29 54 3 9 2 18 6 26 3 7 7 5 13 8 4 2 7 9 12 12 8 6 22 6 32 8 11 2 11 5 19 12 7 7 12 13 21 15 5 1 10 2 15 3 4 1 10-1 14 0 18 9 1 29-13 30-8 0-21-9-27 0 9 4 18 8 27 6 11-1 21-5 32-5 9 0 5 1 10 6 4 4 7 7 11 10 10 9 19 7 32 7-5 3-20 8-23 13-1 3-1 26 1 28 2 1 12 0 15 0 5 0 0-5 3-5 7 0 7 0 7-6 0-6 3-4 8-4 8 0 24 4 31 0 2-1 4-7 7-7 4 0 9 0 14 0 15 0 31-2 46-2 46 0 93 0 140 0 8 0 11-4 19-4 14 0 28 0 43 0 84 0 169 0 254 0 24 0 49 0 73 0 10 0 22 8 32 11 6 2 12 5 18 5 6 0 7 1 8-4 2-5 1-9 7-7z m-339-25c4 12-22 7-29 7-10 0-20 0-30 0-2 0-15 1-16 0-10-10 27-7 29-7 15 0 31 0 46 0z m158 1c4 11-27 6-34 6-15 0-29 0-44 0-1-12 26-6 33-6 15 0 30 0 45 0z m77-1c15 0 30 0 44 0 9 0 18 0 26 0 2 0 14-1 9 5-2 1-12 0-13 0-11 0-21 0-32 0-6 0-36 5-34-5z m-515-218c-7-5-12-8-20-10-10-3-15 0-17-12-3-14 1-22 8-34 1-3 7-7 4-9-5-4-5-2-11 3-14 12-18 26-22 44-1 1-19 6-21 6-10-2-19-5-28-8 4-10 8-20 12-30 6-14 11-18 24-27 18-13 54-12 76-7 17 4 27 11 36 26 5 9 4 23 5 33 1 16 1 15-14 21-8 3-27 16-32 4z" horiz-adv-x="2182" />

<glyph glyph-name="sawedoff" unicode="&#xe874;" d="M1725 433c0 18 0 44 0 59-138 0-283 0-422 0-80 0-161 1-241 1-23 0-46 0-69 0-7 0-22 3-26 1-5 25-70 12-85 12-43 0-92 7-135-1-14-7-30-11-41-18-11-6-22-12-32-17-10-6-19-13-28-18-8-5-17-17-26-19-8-2-17-12-24-17-10-6-23-11-35-16-14-6-30-13-46-15-20-3-30 6-44 14-5 3-3 6-9 6-3 0-20 1-20-1 0-5 0-11 0-16 0-20 1-40 1-61 0-28-7-64 8-85 12-16 28-39 44-47 22-10 27-2 32 16 3 8 10 21 15 29 23 39 56 75 92 95 0-2 0-4 0-6 1 1 1 1 2 1 27 12 33-15 45-35 6-11 13-21 23-27 31-19 71-9 101 15 21 17 45 31 71 40 10 3 21 6 32 7 4 1 16 14 24 19 7 4 16 2 24 2 20 0 41 0 61 0 13 0 29 3 41 0 2 0-2-6 3-6 7-1 15-1 22-1 0 4 0 7 3 7 11 0 4 4 8 6 1 0 37 7 37 2 0-23 49-13 59-13 36 0 78 7 112 0 7-2 14-8 21-10 3-1 0-7 3-7 8 0 16 0 24 0 1 11 82 4 93 4 57 0 115 0 172 0 22 0 52-5 67 7 4 4 7 13 11 18 9 9 17 7 32 7 0 12 0 25 0 37 0 6 0 16 0 22-15 1-26 0-32 0-6 0-3 2 0 10 10 0 21-1 32-1z m-932-137c-7-11-23-18-33-22-14-5-33-2-45 8-13 9-19 32-3 45 0-16-4-42 11-42-2 0 9 42 11 47 9 3 19 1 28 1 15 0 28 3 34-14 2-8 1-16-3-23z" horiz-adv-x="2182" />

</font>
</defs>
</svg>
